<?xml version="1.0" standalone="no"?>
<!DOCTYPE svg PUBLIC "-//W3C//DTD SVG 1.1//EN" "http://www.w3.org/Graphics/SVG/1.1/DTD/svg11.dtd" >
<!--
2013-9-30: Created.
-->
<svg>
<metadata>
Created by iconfont
</metadata>
<defs>

<font id="iconfont" horiz-adv-x="1024" >
  <font-face
    font-family="iconfont"
    font-weight="500"
    font-stretch="normal"
    units-per-em="1024"
    ascent="896"
    descent="-128"
  />
    <missing-glyph />
    
    <glyph glyph-name="mail" unicode="&#58897;" d="M896 672h-768c-70.592 0-128-57.408-128-128v-512c0-70.592 57.408-128 128-128h768c70.592 0 128 57.408 128 128v512c0 70.592-57.408 128-128 128zM896 608c6.272 0 11.904-1.856 17.6-3.584l-378.624-374.656c-12.416-12.416-33.6-12.416-46.144-0.064l-380.8 374.272c6.4 2.112 12.928 4.032 19.968 4.032h768zM960 32c0-35.328-28.672-64-64-64h-768c-35.264 0-64 28.672-64 64v512c0 4.032 1.536 7.488 2.304 11.264l377.664-371.2c18.752-18.432 43.328-27.712 67.968-27.712 24.704 0 49.344 9.344 68.096 27.904l377.28 373.312c0.96-4.48 2.688-8.768 2.688-13.568v-512z"  horiz-adv-x="1024" />

    
    <glyph glyph-name="dizhi" unicode="&#58905;" d="M328.704 429.056c6.144-9.216 31.744-48.128 160.768-232.448l1.024-1.024c7.168-9.216 19.456-15.36 30.72-15.36 12.288 0 24.576 6.144 30.72 16.384 55.296 79.872 159.744 230.4 163.84 235.52l1.024 1.024c21.504 35.84 33.792 77.824 33.792 119.808 0 125.952-102.4 229.376-229.376 229.376s-229.376-102.4-229.376-229.376C291.84 508.928 304.128 466.944 328.704 429.056L328.704 429.056zM520.192 723.968c94.208 0 171.008-76.8 171.008-171.008 0-30.72-8.192-60.416-24.576-89.088-6.144-9.216-90.112-130.048-145.408-209.92-43.008 61.44-136.192 195.584-145.408 207.872C358.4 488.448 348.16 520.192 348.16 551.936 349.184 646.144 425.984 723.968 520.192 723.968zM520.192 424.96c69.632 0 126.976 57.344 126.976 126.976s-57.344 126.976-126.976 126.976c-69.632 0-126.976-57.344-126.976-126.976S449.536 424.96 520.192 424.96zM520.192 621.568c37.888 0 68.608-30.72 68.608-68.608 0-38.912-30.72-68.608-68.608-68.608-37.888 0-68.608 30.72-68.608 68.608S482.304 621.568 520.192 621.568zM1006.592 126.976 864.256 402.432 746.496 402.432l-46.08-59.392 128 0 130.048-248.832 2.048-2.048c7.168-9.216 7.168-21.504 2.048-31.744-5.12-10.24-15.36-16.384-27.648-16.384L90.112 44.032c-12.288 0-22.528 6.144-27.648 16.384-5.12 11.264-4.096 22.528 3.072 32.768l1.024 1.024L194.56 344.064l145.408 0-48.128 59.392-133.12 0-142.336-276.48c-19.456-27.648-21.504-62.464-6.144-91.136 16.384-30.72 46.08-49.152 80.896-49.152l844.8 0c33.792 0 64.512 18.432 79.872 49.152C1029.12 65.536 1026.048 100.352 1006.592 126.976z"  horiz-adv-x="1024" />

    
    <glyph glyph-name="huiyuan" unicode="&#58909;" d="M940.032-112.64l-855.04 0c-54.272 0-84.992 32.768-84.992 91.136 0 111.616 99.328 273.408 278.528 273.408 11.264 0 19.456-9.216 19.456-19.456s-9.216-19.456-19.456-19.456c-153.6 0-238.592-138.24-238.592-234.496 0-46.08 24.576-51.2 45.056-51.2l855.04 0c21.504 0 45.056 6.144 45.056 51.2 0 95.232-84.992 234.496-238.592 234.496-11.264 0-19.456 9.216-19.456 19.456s9.216 19.456 19.456 19.456C925.696 251.904 1025.024 90.112 1025.024-21.504 1025.024-78.848 994.304-112.64 940.032-112.64zM513.024 266.24c-153.6 0-279.552 137.216-279.552 307.2S359.424 880.64 513.024 880.64s279.552-137.216 279.552-307.2S666.624 266.24 513.024 266.24zM513.024 840.704c-132.096 0-239.616-119.808-239.616-267.264S380.928 306.176 513.024 306.176s239.616 119.808 239.616 267.264S645.12 840.704 513.024 840.704z"  horiz-adv-x="1026" />

    
    <glyph glyph-name="iconfontpinglun" unicode="&#58918;" d="M552.83712 74.1888c0-14.14144 11.45856-25.6 25.6-25.6l389.18144 0c14.14144 0 25.6 11.45856 25.6 25.6s-11.45856 25.6-25.6 25.6L578.43712 99.7888C564.29568 99.7888 552.83712 88.33024 552.83712 74.1888zM967.61856-38.94272 393.48224-38.94272c-14.14144 0-25.6-11.45856-25.6-25.6s11.45856-25.6 25.6-25.6l574.13632 0c14.14144 0 25.6 11.45856 25.6 25.6S981.76-38.94272 967.61856-38.94272zM412.64128 55.04c0.29696 0.3072 0.512 0.6656 0.79872 0.99328 0.64512 0.59392 1.37216 1.18784 1.95584 1.78176L826.0608 468.46976c0.01024 0 0.02048 0.01024 0.03072 0.02048s0.01024 0.02048 0.02048 0.03072l76.58496 76.58496c32.12288 32.12288 49.8176 74.83392 49.8176 120.25856s-17.70496 88.13568-49.8176 120.25856l-22.70208 22.70208c-32.12288 32.13312-74.84416 49.8176-120.25856 49.8176s-88.12544-17.69472-120.25856-49.8176L152.17664 321.01376c-0.58368-0.57344-1.14688-1.30048-1.72032-1.91488-0.32768-0.29696-0.70656-0.52224-1.03424-0.83968-1.05472-1.04448-1.91488-2.19136-2.75456-3.35872-0.09216-0.11264-0.18432-0.22528-0.27648-0.33792-0.09216-0.14336-0.21504-0.26624-0.29696-0.4096-57.78432-71.69024-109.01504-329.3184-114.85184-359.424-1.65888-8.57088 1.15712-17.38752 7.4752-23.40864 4.8128-4.57728 11.15136-7.05536 17.65376-7.05536 2.02752 0 4.06528 0.23552 6.08256 0.72704 28.98944 7.09632 278.528 69.39648 347.38176 127.77472C410.79808 53.48352 411.77088 54.1696 412.64128 55.04zM203.73504 300.15488l377.25184 377.25184 190.80192-190.8224-377.2416-377.2416L203.73504 300.15488zM675.67616 772.11648c22.45632 22.44608 52.30592 34.816 84.06016 34.816s61.60384-12.36992 84.04992-34.816l22.71232-22.71232c22.44608-22.44608 34.816-52.29568 34.816-84.04992s-12.36992-61.60384-34.816-84.04992l-58.5216-58.5216L617.17504 713.60512 675.67616 772.11648zM171.73504 259.74784l182.85568-182.86592c-55.66464-30.9248-174.42816-68.096-264.93952-92.09856C109.81376 78.91968 142.336 202.6496 171.73504 259.74784z"  horiz-adv-x="1024" />

    
    <glyph glyph-name="daohangfaxian2" unicode="&#58903;" d="M400.556838 743.713754 128.344087 743.713754c-24.204262 0-43.914162-19.946284-43.921325-44.465724l0-298.993698c0-26.443255 23.232121-53.382814 46.027289-53.382814l276.162714 0c24.51944 0 46.02422 21.407566 46.02422 45.796022L452.636984 697.918755C452.627774 721.026032 426.829202 743.713754 400.556838 743.713754zM406.610718 255.301985 130.449028 255.301985c-24.075325 0-46.01194-22.687722-46.027289-47.579645l0-299.000861c0-25.371854 22.798239-50.263777 46.027289-50.263777l276.162714 0c22.833031 0 46.02422 35.510772 46.02422 61.054541L452.635961 209.50494C452.627774 233.88521 431.114808 255.301985 406.610718 255.301985zM606.059236 346.870494l260.819261 0c22.653953 0 46.619784 27.443026 46.619784 53.382814L913.49828 699.24803c-0.008186 24.51944-19.720134 44.465724-43.921325 44.465724L597.362156 743.713754c-23.701818 0-52.66343-21.134343-52.671617-45.796022l0-305.252239C544.691563 369.946049 580.393693 346.870494 606.059236 346.870494zM931.903465-92.492162l-49.479925 49.874921 6.748704 10.30367c49.345871 75.343989 39.133276 176.414919-24.287149 240.367463-35.742039 36.020378-83.251076 55.875588-133.773749 55.875588-50.528813 0-98.03785-19.85521-133.786029-55.901171-73.925686-74.518181-73.925686-195.775872 0-270.302239 35.749202-36.036751 83.266425-55.891961 133.786029-55.891961 37.20946 0 73.190953 10.864442 104.062054 31.422663l11.184737 7.446599 49.675376-56.273654c8.540514-8.568143 26.115797-9.221012 35.869952 0.636496C942.135504-124.633187 942.135504-102.804019 931.903465-92.492162zM828.843228-25.378625c-26.091238-26.303063-60.807924-40.793078-97.739045-40.793078s-71.638597 14.490016-97.747231 40.793078c-53.726645 54.1769-53.726645 142.326543 0 196.495256 26.100448 26.303063 60.816111 40.793078 97.747231 40.793078 36.931121 0 71.647807-14.490016 97.739045-40.793078C882.579083 116.945871 882.579083 28.797251 828.843228-25.378625z"  horiz-adv-x="1024" />

    
    <glyph glyph-name="huodongguanli" unicode="&#58979;" d="M405.4 329.4c-50.4 18.2-98.5 27.5-143.1 27.6C207 359.1 161 340.2 128 319.9L128 752.5c1.7 12.1 6.7 28.3 11.4 34.1C164.7 804.3 215.5 832 285.2 832c18.9 0 67.1-11.9 94-19.6 19.2-7.2 216.7-80 325.7-80 65.6 0 159.9 26.6 252.4 71.1 0.8 0.2 1.4 0.3 1.8 0.4 0.5-0.8 1.1-2 1.5-3.1l3.3-306.2c0.2-17.7 14.6-31.8 32.3-31.7 17.7 0.2 31.8 14.7 31.7 32.3l-3.4 313.1-0.5 2.7c-1 5.5-7.4 33.8-32.9 48.7-11.3 6.6-30.2 12.6-56.1 3.8l-1.8-0.6-1.8-0.8C847.9 821.7 761 796.5 704.9 796.5c-100.6 0-302.4 75.5-304.4 76.3l-1.2 0.4-1.2 0.3C390.2 875.9 319.7 896 285.2 896c0 0 0 0 0 0C195.5 896 130.5 859 99.8 837l-1.7-1.2-1.5-1.4c-25.2-23.5-31.4-67.5-32.4-76.1l-0.2-1.8L64-96c0-17.7 14.3-32 32-32 17.7 0 32 14.3 32 32L128 240.1c6.6 6.1 17.1 14.8 30.8 23.6 32.9 20.9 67.1 30.7 101.6 29.3l1.3 0c37.3 0 78.3-8 121.9-23.8 16.6-6 35 2.6 41 19.2C430.6 305 422 323.3 405.4 329.4zM1007.4 268.9l-50 0c-4.6 16.5-11.1 32.2-19.3 46.8l35.3 35.3c6.5 6.5 6.5 17 0 23.5l-57 57c-3.2 3.2-7.5 4.8-11.7 4.8-4.3 0-8.5-1.6-11.7-4.8l-35.3-35.3c-14.6 8.2-30.3 14.7-46.8 19.3l0 50c0 9.1-7.5 16.6-16.6 16.6l-80.6 0c-9.1 0-16.6-7.5-16.6-16.6l0-50c-16.5-4.6-32.2-11.1-46.8-19.3L615 431.4c-3.2 3.2-7.5 4.8-11.7 4.8s-8.5-1.6-11.7-4.8l-57-57c-6.4-6.5-6.4-17 0-23.5l35.3-35.3c-8.2-14.6-14.7-30.3-19.3-46.8l-50 0c-9.1 0-16.6-7.5-16.6-16.6l0-80.6c0-9.1 7.5-16.6 16.6-16.6l50 0c4.6-16.5 11.1-32.2 19.3-46.8L534.5 73c-6.4-6.5-6.4-17 0-23.5l57-57c3.2-3.2 7.5-4.8 11.7-4.8s8.5 1.6 11.7 4.8l35.3 35.3c14.6-8.2 30.3-14.7 46.8-19.3l0-50c0-9.1 7.5-16.6 16.6-16.6l80.6 0c9.1 0 16.6 7.5 16.6 16.6l0 50c16.5 4.6 32.2 11.1 46.8 19.3l35.3-35.3c3.2-3.2 7.5-4.8 11.7-4.8 4.3 0 8.5 1.6 11.7 4.8l57 57c6.5 6.5 6.5 17 0 23.5l-35.3 35.3c8.2 14.6 14.7 30.3 19.3 46.8l50 0c9.1 0 16.6 7.5 16.6 16.6l0 80.6C1024 261.4 1016.5 268.9 1007.4 268.9zM895.8 172.2c-3.2-11.5-7.7-22.5-13.4-32.6l-20.3-35.9-35.9-20.3c-10.1-5.7-21-10.2-32.6-13.4L753.9 59l-39.7 11.1c-11.5 3.2-22.5 7.7-32.6 13.4l-35.9 20.3-20.3 35.9c-5.7 10.1-10.2 21-13.4 32.6L601 211.9l11.1 39.7c3.2 11.5 7.7 22.5 13.4 32.6l20.3 35.9 35.9 20.3c10.1 5.7 21 10.2 32.6 13.4l39.7 11.1 39.7-11.1c11.5-3.2 22.5-7.7 32.6-13.4l35.9-20.3 20.3-35.9c5.7-10.1 10.2-21 13.4-32.6l11.1-39.7L895.8 172.2zM753.9 313.2c-55.9 0-101.3-45.3-101.3-101.3 0-55.9 45.3-101.3 101.3-101.3 55.9 0 101.3 45.3 101.3 101.3C855.2 267.9 809.9 313.2 753.9 313.2zM753.9 174.7c-20.6 0-37.3 16.7-37.3 37.3s16.7 37.3 37.3 37.3 37.3-16.7 37.3-37.3S774.5 174.7 753.9 174.7z"  horiz-adv-x="1028" />

    
    <glyph glyph-name="daohang" unicode="&#58882;" d="M189.525333 410.794667l280.213333 0L469.738667 690.794667 189.525333 690.794667 189.525333 410.794667 189.525333 410.794667zM229.546667 650.794667l200.149333 0 0-200L229.546667 450.794667 229.546667 650.794667 229.546667 650.794667zM189.525333 50.794667000000004l280.213333 0L469.738667 330.794667 189.525333 330.794667 189.525333 50.794667000000004 189.525333 50.794667000000004zM229.546667 290.794667l200.149333 0 0-200L229.546667 90.794667 229.546667 290.794667 229.546667 290.794667zM549.781333 690.794667l0-280 280.192 0L829.973333 690.794667 549.781333 690.794667 549.781333 690.794667zM789.952 450.794667l-200.128 0 0 200 200.128 0L789.952 450.794667 789.952 450.794667zM549.781333 50.794667000000004l280.192 0L829.973333 330.794667 549.781333 330.794667 549.781333 50.794667000000004 549.781333 50.794667000000004zM589.802667 290.794667l200.128 0 0-200-200.128 0L589.802667 290.794667 589.802667 290.794667zM589.802667 290.794667"  horiz-adv-x="1024" />

    
    <glyph glyph-name="zhuanfa" unicode="&#58975;" d="M617.5 624.2l278.6-244.1L611.6 133 611.6 254.5l0 59.7-59.2-7.3c-12.3-1.5-250.9-32.4-443.4-158.8 9.4 27.7 21.8 57.3 38.3 86.7 79.6 142.1 215 214.1 402.4 214.1 4.6 0 9.3 0 14-0.1l53.7-1 0 53.7L617.4 624.2M564.7 740.5l0-239.1c-5 0.1-10.1 0.1-15 0.1-504.6 0-521.9-488.1-522-490.1 182.3 199.9 531.1 243 531.1 243l0-237.1 417.5 362.6L564.7 740.5 564.7 740.5zM27.7 11.5C27.7 11.5 27.7 11.5 27.7 11.5 27.7 11.5 27.7 11.5 27.7 11.5L27.7 11.5z"  horiz-adv-x="1024" />

    
    <glyph glyph-name="check" unicode="&#58946;" d="M384 204.8 204.8 384 145.066667 324.266667 384 85.333333 896 597.333333 836.266667 657.066667Z"  horiz-adv-x="1024" />

    
    <glyph glyph-name="dianzan" unicode="&#58955;" d="M922.942 472.648c-22.409 28.266-55.958 44.474-92.034 44.474l-220.63-0.913c11.213 31.273 17.396 61.253 23.159 93.74 6.065 34.188 6.303 100.85-12.683 135.648-23.349 42.804-59.815 70.553-111.688 78.261-23.503 3.489-43.712-1.023-60.081-13.422-33.081-25.062-39.15-72.756-46.185-127.977-5.62-44.146-11.991-94.182-33.402-130.048-14.286-23.937-42.101-55.755-118.346-55.755l-79.567 0c-52.985 0-96.092-43.091-96.092-96.057l0-363.154c0-52.964 43.107-96.056 96.092-96.056l579.67 0c26.391 0 52.303 9.027 72.977 25.417 20.681 16.394 35.374 39.568 41.386 65.254l79.753 340.933C953.481 408.083 945.344 444.411 922.942 472.648zM243.623-14.415l-73.786 0c-19.311 0-35.019 15.696-35.019 34.982L134.818 417.474c0 19.285 15.708 34.98 35.019 34.98l73.786 0L243.623-14.415zM898.101 387.809l-83.941-358.848c-5.971-25.535-28.479-43.376-54.728-43.376L287.775-14.415 287.775 440.087c56.953 10.874 99.794 39.876 127.721 86.658 29.75 49.833 37.398 109.915 44.151 162.919 3.051 23.952 5.927 46.577 10.504 63.934 4.908 18.615 9.986 24.067 11.942 25.551 2.237 1.696 6.484 2.09 12.611 1.181 33.821-5.022 57.293-20.36 71.755-46.877 29.68-54.399 16.57-146.214-11.72-208.793-6.774-14.992-5.514-32.164 3.382-45.941 8.879-13.766 23.991-21.979 40.413-21.979l244.838 0c17.272 0 33.324-7.754 44.051-21.28C898.136 421.957 902.027 404.584 898.101 387.809zM680.103 385.182"  horiz-adv-x="1024" />

    
    <glyph glyph-name="xinzeng" unicode="&#59100;" d="M966.851 457.866h-376.615v376.617h-149.453v-376.617h-379.61v-149.451h379.61v-379.61h149.451v379.61h376.617v149.451zM966.851 457.866z"  horiz-adv-x="1024" />

    
    <glyph glyph-name="yisheng" unicode="&#59140;" d="M362.317932 668.304138l27.123754 0 0-15.032368c0-2.974751 0.900509-5.655813 2.171456-8.138354 1.291412-7.091512 7.15905-12.452613 14.527878-12.452613 5.033643 0 9.267061 2.583848 11.994172 6.341429 4.427846 3.332908 7.486508 8.332782 7.486508 14.249539l0 15.032368 21.046339 0c9.999748 0 18.105357 8.135284 18.105357 18.105357 0 9.965979-8.104585 18.105357-18.105357 18.105357l-21.046339 0 0 22.582321c0 9.999748-8.105608 18.105357-18.108426 18.105357-9.999748 0-18.071587-8.105608-18.071587-18.105357l0-22.582321-27.123754 0c-9.969049 0-18.074657-8.138354-18.074657-18.105357C344.243275 676.439422 352.348883 668.304138 362.317932 668.304138zM56.539714 14.713352c-4.443196-18.334577-12.291954-65.463967 12.725836-99.679233 9.740852-13.341866 28.64234-29.735232 63.364143-32.140001 33.537837-2.331092 128.255059-4.638647 281.520745-6.897084l1.062192 0c152.588257 2.258437 246.866481 4.577249 280.33678 6.897084 34.654264 2.40477 53.544497 18.798135 63.285349 32.127721 24.919553 34.093493 17.204847 81.06427 12.670577 99.862405l-1.134847 3.454682c-49.338708 119.819946-151.862733 207.921493-274.135544 235.386008l-9.55768 2.142803 7.976672 5.688559c75.668377 53.934376 122.675994 167.95627 122.675994 297.560046 0 84.96409-20.910239 165.521824-58.885132 226.829122l-3.765767 6.072299-6.720052 2.483564c-92.617397 34.013675-198.839651 34.019815-291.39565-0.00614l-6.701632-2.478448-3.765767-6.072299c-37.999452-61.288878-58.920948-141.846612-58.920948-226.829122 0-131.965567 50.41318-250.399957 128.444371-301.716716l8.068769-5.309936-9.314133-2.563382c-115.700115-31.871895-209.28249-116.249631-256.747525-231.492328L56.539714 14.713352zM229.818199 579.799408c2.978844 67.600631 19.232017 128.730896 47.001477 176.776146l0.823761 1.422396 1.556449 0.524956c78.159104 26.659173 167.877475 26.653033 246.133793 0.00614l1.556449-0.531096 0.823761-1.428535c27.727505-48.01455 43.968397-109.053742 46.970778-176.507016l0.25071-5.565762-5.468548 1.080611c-152.027485 29.955242-284.518009 9.79611-334.412372-0.261966l-5.480828-1.105171L229.818199 579.799408zM229.745545 527.964856l-0.261966 3.784186 3.710508 0.793062c39.451524 8.464789 180.431396 33.519418 338.122881 0.292666l3.716648-0.780783-0.255827-3.790326c-9.722432-143.836943-85.507466-256.509095-172.522262-256.509095C315.350225 271.753543 239.571331 384.298805 229.745545 527.964856zM96.485495 3.397632c55.216579 132.222417 178.357154 217.613226 313.947272 218.278375l3.918239-0.23843 2.15406 0.079818c136.695289-0.500397 259.933077-85.84925 314.88155-217.411635 2.483564-10.619872 8.697079-44.505633-5.999644-64.597227-6.738471-9.203616-17.437138-14.208607-32.701796-15.283078-32.646538-2.258437-123.567293-4.467755-277.962709-6.762007l-1.276063 0c-154.47421 2.295276-245.37757 4.504594-277.968849 6.762007-15.312754 1.074472-26.030863 6.078439-32.768311 15.283078C88.008426-40.387593 94.228081-6.514111 96.485495 3.397632zM965.824019 24.87376c-39.984666 125.201513-127.928624 172.491563-186.135304 203.802686-9.279341 4.999874-17.860786 9.607822-25.524327 14.183024-10.521634 6.14393-21.290909 11.241019-30.848589 15.751752-5.377474 2.51631-12.027941 5.652743-16.715707 8.269337 131.998313 196.152449 115.101481 370.638435 114.382097 377.174292-5.197372 100.363825-102.097306 136.345318-152.61998 141.345192l-16.652262 1.666966-3.300162-33.301454 16.649192-1.666966c4.789073-0.458441 117.473505-12.747325 122.570593-110.660332 0.083911-0.782829 3.350304-37.123502-5.163603-93.957929-38.284955 15.263635-95.852068 18.891256-103.696734 19.283182l-1.699712-33.432437c28.499078-1.438769 76.655867-7.877411 99.31903-19.283182-13.710256-65.395406-42.615587-149.4508-103.388718-237.003855l-1.827625-3.433192c-9.102309-23.137976 15.848966-34.900881 37.876656-45.261856 8.724709-4.119831 18.580171-8.758478 28.087709-14.312984 7.944949-4.738931 16.963347-9.610892 26.702152-14.838963 56.654324-30.460756 134.237307-72.161506 169.533185-182.03594 6.649444-42.189891 0.277316-55.622832-2.76088-59.44488-1.438769-1.830695-3.741207-3.727904-9.738805-4.119831-22.24156-1.502213-51.949162-2.286066-52.02898-2.286066l0.913812-33.465183c0 0 30.510898 0.816598 53.354162 2.352581 14.296611 0.980327 25.620517 6.569626 33.659611 16.635889C969.960223-46.631808 973.014792-19.475308 965.824019 24.87376z"  horiz-adv-x="1024" />

    
    <glyph glyph-name="chakan" unicode="&#58923;" d="M716.762463 896C204.762463 896 0 384 0 384s204.762463-512 716.762463-512c512 0 716.762463 512 716.762463 512S1228.57478 896 716.762463 896L716.762463 896zM716.762463 76.950147c-169.665689 0-307.237537 137.571848-307.237537 307.237537 0 169.665689 137.571848 307.237537 307.237537 307.237537 169.665689 0 307.237537-137.571848 307.237537-307.237537C1023.812317 214.334311 886.240469 76.950147 716.762463 76.950147L716.762463 76.950147zM716.762463 76.950147M870.28739 384c0-84.832845-68.879765-153.524927-153.524927-153.524927S563.049853 299.354839 563.049853 384c0 84.832845 68.879765 153.524927 153.524927 153.524927C801.595308 537.71261 870.28739 468.832845 870.28739 384L870.28739 384zM870.28739 384"  horiz-adv-x="1434" />

    
    <glyph glyph-name="zan" unicode="&#58930;" d="M968.028 322.001c24 27.33 36 64.33 36 111.007 0 13.332-1.5 25.832-4.51 37.502-3.01 11.667-7.18 22.165-12.51 31.485-3.33 5.335-7.5 10.337-12.51 15.01-5.015 4.67-10.18 8.5-15.49 11.487-5.31 2.985-11.145 5.322-17.5 7.007-6.36 1.685-12.86 2.518-19.49 2.495l-134.01 0c72.66 132.667 90.66 231.662 54.01 296.982-11.325 20.672-26.825 36.01-46.49 46.015C775.858 890.998 756.688 896 738.023 896c-3.325 0-6.495-0.5-9.505-1.505-3.01-1.002-5.67-2.505-8-4.51-2.325-2.005-4.16-4.342-5.5-7.007-1.35-2.667-2.35-5.665-3.01-8.992-1.345-13.332-4.68-27.337-10.015-42.015-5.335-14.677-12.175-29.515-20.515-44.51-8.34-14.997-18-29.995-28.99-44.99-10.985-14.997-23.315-29.995-36.99-44.992-13.67-14.997-28.51-29.832-44.51-44.51-79.997-71.997-170.33-124.997-270.999-159.002-5.995 12.67-15.327 23.167-27.997 31.487-12.672 8.317-26.335 12.49-40.992 12.51L76.99 537.964c-21.332 0-39.497-7.497-54.495-22.495S0 482.306 0 460.974l0-460.976c0-21.335 7.497-39.495 22.495-54.495 14.997-14.995 33.162-22.49 54.495-22.49l154.01 0c10.005 0 19.84 2.16 29.505 6.49 9.662 4.33 17.992 10.17 24.99 17.505 6.997 7.34 12.5 15.67 16.512 24.995 31.337-4.015 59.005-9.175 83.005-15.49 23.997-6.315 41.16-11.82 51.485-16.51 10.325-4.695 23.83-11.36 40.512-20 20.01-11.33 36.51-19.5 49.5-24.51 12.99-5.015 35.33-10.18 67.01-15.49 31.68-5.31 69.51-7.98 113.5-8 18.665 0 36.33 2.335 52.99 7.01 16.66 4.67 31.655 11.335 44.99 20 26 17.34 42 40.34 48 68.99 20.67 8.66 38 27.325 51.995 55.995 14.675 29.995 22.015 59.995 22.015 90.015l0 8c0 2-0.33 4.01-0.99 6.015 4.67 3.325 9 7.155 12.99 11.485 3.99 4.33 7.82 9.165 11.49 14.5 3.67 5.33 6.835 11.335 9.5 18.01 15.34 29.335 23.01 60.33 23.01 92.99 0 21.995-4 40-12 54.015-1.345 1.345-2.02 2.345-2.02 3.01l-0.99 0L968.028 322.001zM230.072-25.988 77.085-25.988c-3.327 0-6.665 0.835-10.015 2.5-3.35 1.66-6.187 3.5-8.512 5.5-2.325 2.01-4.16 4.675-5.502 8-1.345 3.33-2.017 6.67-2.017 10.02L51.039 461.006c0 6.677 2.497 12.512 7.487 17.505 4.992 4.99 11.157 7.487 18.497 7.487l152.987 0c7.337 0 13.502-2.497 18.495-7.487 4.99-4.992 7.487-10.827 7.487-17.505l0-460.974c0-13.335-6.337-21.665-19.007-24.99-2.667 0-5.002-0.335-7.007-0.995L230.072-25.988zM939.038 370.001c-7.335-13.995-13.67-20.99-19.005-20.99-7.335 0-13.505-2.5-18.495-7.49s-7.49-10.995-7.49-18.015c0-7.015 2.5-13.025 7.49-18.015s11.16-7.49 18.495-7.49c2.665 0 4.675-1.33 6.015-4 3.33-6.675 4.99-16.34 4.99-28.99 0-24.66-5.33-48.33-16-71.005-9.34-18.665-17.67-27.995-24.99-27.995-4.67 0-9-1.005-12.99-3.01-3.99-2.01-7.16-5.005-9.5-8.99-2.35-3.99-3.51-8.32-3.49-12.995 0-3.325 0.5-6.325 1.5-8.99 1.005-2.665 2.34-5.005 4-7.01 1.67-2.005 3.83-4.01 6.5-6.015 0.66-9.34-1.175-23.01-5.505-40.99-4.33-17.985-11.165-33.65-20.515-47.01-8-11.325-14.99-16.99-20.99-16.99-4.67 0-9-1-12.99-3.01-3.99-2-7.16-5-9.5-8.99-2.35-3.99-3.51-8.32-3.49-12.99 0-21.33-9.505-37.66-28.51-48.99-19.01-11.33-41.505-16.99-67.49-16.99-40 0-74 2.165-102.01 6.495-28.01 4.33-47.84 8.83-59.49 13.505-11.645 4.67-26.48 12.01-44.507 22.01-18.005 9.35-32.842 16.685-44.51 22.02-11.67 5.33-30.837 11.5-57.502 18.495-26.667 6.995-57.332 12.83-91.997 17.505L307.062 442.064c111.335 36.67 210.667 94.332 298.007 172.987 83.325 75.325 134.32 150.66 152.985 226.007 18.005-5.332 31.34-15.667 40-31.007 4.675-9.342 7.84-20.51 9.505-33.502 1.66-12.992 1.16-30.655-1.505-52.99s-11.165-50.505-25.505-84.51c-14.335-34.002-34.16-72.007-59.485-114.012-2.005-4.01-3.005-8.34-3.005-12.99 0-4.652 1-8.982 3.005-12.992 4.675-8.662 12.01-12.992 22.015-12.992l187 0 2.02-2.015c1.34 0 2.505-0.33 3.49-0.992 0.98-0.66 1.98-1.492 3.005-2.495s1.855-2.005 2.495-3.007c0.64-1.003 1.64-2.165 3.01-3.49 2.665-4.67 4.83-10.505 6.495-17.502 1.665-6.997 2.495-14.825 2.495-23.487 0-23.337-4.67-44.34-14.015-63.005L939.038 370.001z"  horiz-adv-x="1025" />

    
    <glyph glyph-name="bianji" unicode="&#58934;" d="M777.762853 11.773394c19.230993 0 34.800597-16.341177 34.800597-36.518728 0-20.147876-15.568581-36.489052-34.800597-36.489052L162.427346-61.234387c-19.206434 0-34.776038 16.341177-34.776038 36.489052 0 20.178575 15.57472 36.518728 34.776038 36.518728L777.762853 11.773394 777.762853 11.773394zM160.801313 61.038424l83.588767 234.281861 136.232754-142.984528L160.801313 61.038424 160.801313 61.038424zM408.55807 179.266106 271.167956 323.423343 644.655276 712.255139l137.384997-144.156214L408.55807 179.266106 408.55807 179.266106zM807.671023 598.054167 670.286026 742.210381l68.721151 72.076572c22.77061 23.864524 59.637262 23.864524 82.406848 0l54.949496-57.654095c22.77061-23.893176 22.77061-62.638619 0-86.531795L807.671023 598.054167 807.671023 598.054167z"  horiz-adv-x="1024" />

    
    <glyph glyph-name="caidan" unicode="&#58922;" d="M905.848832 189.44c22.84544 0 41.744384-18.75968 41.744384-41.603072 0-23.6032-18.898944-42.364928-41.744384-42.364928L301.010944 105.472c-22.833152 0-41.728 18.75968-41.728 42.364928 0 22.843392 18.896896 41.603072 41.728 41.603072L905.848832 189.44zM139.56096 680.511488c29.927424 0 53.557248-24.406016 53.557248-53.54496 0-29.927424-23.631872-53.559296-53.557248-53.559296C110.422016 573.407232 86.016 597.039104 86.016 626.966528 86.016 656.105472 110.422016 680.511488 139.56096 680.511488L139.56096 680.511488zM301.010944 578.56c-22.833152 0-41.728 19.13856-41.728 41.984s18.896896 41.984 41.728 41.984l604.837888 0c22.84544 0 41.744384-19.13856 41.744384-41.984s-18.898944-41.984-41.744384-41.984L301.010944 578.56zM301.010944 326.656c-22.833152 0-41.728 19.140608-41.728 41.984s18.896896 41.984 41.728 41.984l604.837888 0c22.84544 0 41.744384-19.140608 41.744384-41.984s-18.898944-41.984-41.744384-41.984L301.010944 326.656zM139.56096 437.164032c29.927424 0 53.557248-23.63392 53.557248-53.557248 0-29.140992-23.631872-53.557248-53.557248-53.557248C110.422016 330.049536 86.016 354.465792 86.016 383.606784 86.016 413.53216 110.422016 437.164032 139.56096 437.164032L139.56096 437.164032zM139.56096 194.592768c29.927424 0 53.557248-24.420352 53.557248-53.559296 0-29.925376-23.631872-53.54496-53.557248-53.54496C110.422016 87.488512 86.016 111.106048 86.016 141.031424 86.016 170.172416 110.422016 194.592768 139.56096 194.592768L139.56096 194.592768z"  horiz-adv-x="1024" />

    
    <glyph glyph-name="wenzhang" unicode="&#58937;" d="M389.901663 430.658669l425.137677 0 0-55.709813-425.137677 0 0 55.709813ZM389.901663 629.760287l425.137677 0 0-55.709813-425.137677 0 0 55.709813ZM389.901663 231.551936l425.137677 0 0-55.709813-425.137677 0 0 55.709813ZM240.576729 231.551936l101.595886 0 0-55.709813-101.595886 0 0 55.709813ZM926.00871 851.805452 129.605312 851.805452c-28.010961 0-50.79999-22.788006-50.79999-50.798966l0-796.409538c0-28.009937 22.789029-50.798966 50.79999-50.798966l796.408515 0c28.008914 0 50.79692 22.789029 50.79692 50.798966L976.810746 801.007509C976.810746 829.017446 954.020694 851.805452 926.00871 851.805452zM924.99052 799.984203l0-794.362926-794.361903 0L130.628618 799.984203 924.99052 799.984203zM240.576729 430.658669l101.595886 0 0-55.709813-101.595886 0 0 55.709813ZM240.576729 629.760287l101.595886 0 0-55.709813-101.595886 0 0 55.709813Z"  horiz-adv-x="1024" />

    
    <glyph glyph-name="shangchuan" unicode="&#58950;" d="M360.448 609.28c4.096 0 8.192 4.096 12.288 4.096L491.52 736.256l0-598.016c0-12.288 8.192-20.48 20.48-20.48 12.288 0 20.48 8.192 20.48 20.48L532.48 736.256l118.784-118.784C651.264 613.376 659.456 609.28 663.552 609.28c12.288 0 20.48 8.192 20.48 20.48 0 4.096-4.096 8.192-4.096 12.288l-151.552 151.552c-4.096 4.096-8.192 4.096-12.288 4.096-4.096 0-8.192-4.096-12.288-4.096L348.16 642.048C344.064 637.952 339.968 633.856 339.968 629.76 339.968 617.472 352.256 609.28 360.448 609.28zM794.624 535.552l-208.896 0c-12.288 0-20.48-8.192-20.48-20.48 0-12.288 8.192-20.48 20.48-20.48L778.24 494.592l0-491.52L245.76 3.072l0 491.52 188.416 0c12.288 0 20.48 8.192 20.48 20.48 0 12.288-8.192 20.48-20.48 20.48L229.376 535.552C217.088 535.552 208.896 527.36 208.896 515.072l0-528.384c0-12.288 8.192-20.48 20.48-20.48l565.248 0c12.288 0 20.48 8.192 20.48 20.48L815.104 515.072C815.104 527.36 806.912 535.552 794.624 535.552z"  horiz-adv-x="1024" />

    
    <glyph glyph-name="tianjia" unicode="&#58952;" d="M512-128 512-128c-38.4 0-64 25.6-64 64L448 832c0 32 25.6 64 64 64l0 0c32 0 64-25.6 64-64l0-896C576-102.4 550.4-128 512-128zM0 384 0 384c0 38.4 25.6 64 64 64l896 0c32 0 64-25.6 64-64l0 0c0-32-25.6-64-64-64L64 320C25.6 320 0 345.6 0 384z"  horiz-adv-x="1024" />

    
    <glyph glyph-name="ditu" unicode="&#58899;" d="M497.21169 802.587494c-102.080933 0-184.846962-82.766029-184.846962-184.849008 0-102.094236 82.766029-184.846962 184.846962-184.846962 102.085026 0 184.850032 82.752726 184.850032 184.846962C682.059676 719.821465 599.293647 802.587494 497.21169 802.587494zM496.47798 186.318732c0 0-265.75876 296.161187-265.75876 442.931948 0 146.759505 118.987998 265.759783 265.75876 265.759783s265.759783-119.000278 265.759783-265.759783C762.237763 482.479919 496.47798 186.318732 496.47798 186.318732zM496.47798 540.664086c-48.927339 0-88.585571 39.659255-88.585571 88.584548 0 48.927339 39.662325 88.586594 88.585571 88.586594 48.927339 0 88.587618-39.659255 88.587618-88.586594C585.065598 580.324364 545.405319 540.664086 496.47798 540.664086zM864.804766 492.110253l92.213191 32.961716 0-491.182882c0 0-189.033307-56.122205-291.429419-84.908832l-357.856317 100.402711L68.615239-31.986249 68.615239 457.071226l88.572268 24.172539c-2.543939 14.811334-3.580548 52.470025-3.580548 68.242244L0.020978 514.005936l0-640.690988 51.200102 16.726963 256.265548 83.228563 358.102934-100.280938 358.38946 100.335173L1023.979022 614.066863l-154.314575-42.860157C868.663654 553.926134 868.233865 518.433782 864.804766 492.110253L864.804766 492.110253 864.804766 492.110253z"  horiz-adv-x="1024" />

    
    <glyph glyph-name="chanpinjieshao" unicode="&#58919;" d="M987.663481 843.14983 591.279522 843.14983c-9.120396 0-16.515358 7.394962-16.515358 16.515358s7.394962 16.515358 16.515358 16.515358L987.663481 876.180546c9.120396 0 16.515358-7.394962 16.515358-16.515358S996.783877 843.14983 987.663481 843.14983zM987.663481 664.774744 591.279522 664.774744c-9.120396 0-16.515358 7.394962-16.515358 16.515358s7.394962 16.515358 16.515358 16.515358L987.663481 697.805461c9.120396 0 16.515358-7.394962 16.515358-16.515358S996.783877 664.774744 987.663481 664.774744zM987.663481 486.401365 591.279522 486.401365c-9.120396 0-16.515358 7.394962-16.515358 16.515358s7.394962 16.515358 16.515358 16.515358L987.663481 519.432082c9.120396 0 16.515358-7.394962 16.515358-16.515358S996.783877 486.401365 987.663481 486.401365zM412.904437 426.94471 56.157679 426.94471C25.192023 426.94471 0.001707 452.135026 0.001707 483.09727L0.001707 839.845734C0.001707 870.809684 25.192023 896 56.157679 896l356.748464 0c30.96395 0 56.154266-25.190316 56.154266-56.154266l0-356.748464C469.058703 452.135026 443.868387 426.94471 412.904437 426.94471zM56.157679 862.967577c-12.750464 0-23.12355-10.373085-23.12355-23.121843l0-356.748464c0-12.748758 10.373085-23.120136 23.12355-23.120136l356.748464 0c12.748758 0 23.121843 10.371379 23.121843 23.120136L436.027987 839.845734c0 12.748758-10.373085 23.121843-23.121843 23.121843L56.157679 862.967577zM412.904437-127.996587 56.157679-127.996587C25.192023-127.996587 0.001707-102.806271 0.001707-71.844027L0.001707 284.906144c0 30.96395 25.190316 56.154266 56.155973 56.154266l356.748464 0c30.96395 0 56.154266-25.190316 56.154266-56.154266l0-356.748464C469.058703-102.806271 443.868387-127.996587 412.904437-127.996587zM56.157679 308.027987c-12.750464 0-23.12355-10.373085-23.12355-23.121843l0-356.748464c0-12.748758 10.373085-23.120136 23.12355-23.120136l356.748464 0c12.748758 0 23.121843 10.373085 23.121843 23.120136L436.027987 284.906144c0 12.750464-10.373085 23.121843-23.121843 23.121843L56.157679 308.027987zM967.845734-127.996587 611.098976-127.996587c-30.96395 0-56.155973 25.190316-56.155973 56.152559L554.943004 284.906144c0 30.96395 25.192023 56.154266 56.155973 56.154266l356.746758 0c30.962243 0 56.152559-25.190316 56.152559-56.154266l0-356.748464C1023.998293-102.806271 998.807977-127.996587 967.845734-127.996587zM611.098976 308.027987c-12.750464 0-23.12355-10.373085-23.12355-23.121843l0-356.748464c0-12.748758 10.374792-23.120136 23.12355-23.120136l356.746758 0c12.748758 0 23.120136 10.373085 23.120136 23.120136L990.96587 284.906144c0 12.750464-10.373085 23.121843-23.120136 23.121843L611.098976 308.027987z"  horiz-adv-x="1024" />

    
    <glyph glyph-name="shanchu" unicode="&#58910;" d="M830.061986 542.182672l-29.966499-567.691393c-1.102101-20.853957-18.330484-37.20025-39.21821-37.20025L263.122723-62.708971c-20.887726 0-38.116109 16.346293-39.21821 37.20025l-29.966499 567.691393c-1.140986 21.659299 15.489786 40.144302 37.148062 41.289382 21.759583 1.049912 40.148395-15.493879 41.289382-37.148062l28.000728-530.491143 423.248653 0 28.000728 530.491143c1.150196 21.663392 19.760043 38.130436 41.289382 37.148062C814.5722 582.325951 831.202972 563.841971 830.061986 542.182672zM934.164972 673.62533c0-21.687952-17.58347-39.271422-39.271422-39.271422L129.10645 634.353908c-21.687952 0-39.271422 17.58347-39.271422 39.271422s17.58347 39.271422 39.271422 39.271422l215.991286 0L345.097736 801.256172c0 18.97926 12.656251 29.453822 31.634488 29.453822l270.526343 0c18.97926 0 31.643698-10.474562 31.643698-29.453822l0-88.360444 215.991286 0C916.581502 712.895729 934.164972 695.312258 934.164972 673.62533zM413.821957 712.895729l196.356087 0L610.178043 761.98475 413.821957 761.98475 413.821957 712.895729zM430.287977 74.739471c0.274246 0 0.546446 0 0.824785 0 18.974144 0 33.988092 18.252713 33.542954 37.225833l-9.985422 424.467411c-0.446162 18.975167-16.005532 34.476209-35.162848 34.0587-18.974144-0.446162-33.988092-15.930831-33.542954-34.904974l9.985422-425.364851C396.390959 91.525786 411.683247 74.739471 430.287977 74.739471zM592.20981 74.739471c18.600637 0 33.898041 15.779382 34.339086 34.475186l9.985422 423.901523c0.446162 18.974144-14.56881 34.94693-33.542954 35.393091-19.270902 0.278339-34.717709-14.45727-35.162848-33.42732l-9.985422-424.308799c-0.446162-18.975167 14.56881-36.033681 33.542954-36.033681C591.664388 74.739471 591.93761 74.739471 592.20981 74.739471z"  horiz-adv-x="1024" />

    
    <glyph glyph-name="pinglun" unicode="&#58895;" d="M552.83712 74.1888a25.6 25.6 0 0 1 25.6-25.6h389.18144c14.14144 0 25.6 11.45856 25.6 25.6s-11.45856 25.6-25.6 25.6h-389.18144a25.6 25.6 0 0 1-25.6-25.6z m414.78144-113.13152H393.48224c-14.14144 0-25.6-11.45856-25.6-25.6s11.45856-25.6 25.6-25.6h574.13632c14.14144 0 25.6 11.45856 25.6 25.6s-11.45856 25.6-25.6 25.6zM412.64128 55.04c0.29696 0.3072 0.512 0.6656 0.79872 0.99328 0.64512 0.59392 1.37216 1.18784 1.95584 1.78176l410.66496 410.65472c0.01024 0 0.02048 0.01024 0.03072 0.02048l0.02048 0.03072 76.58496 76.58496c32.12288 32.12288 49.8176 74.83392 49.8176 120.25856s-17.70496 88.13568-49.8176 120.25856l-22.70208 22.70208c-32.12288 32.13312-74.84416 49.8176-120.25856 49.8176s-88.12544-17.69472-120.25856-49.8176l-487.30112-487.31136c-0.58368-0.57344-1.14688-1.30048-1.72032-1.91488-0.32768-0.29696-0.70656-0.52224-1.03424-0.83968a25.8048 25.8048 0 0 1-2.75456-3.35872l-0.27648-0.33792c-0.09216-0.14336-0.21504-0.26624-0.29696-0.4096-57.78432-71.69024-109.01504-329.3184-114.85184-359.424a25.60512 25.60512 0 0 1 31.21152-29.73696c28.98944 7.09632 278.528 69.39648 347.38176 127.77472 0.96256 0.7168 1.93536 1.40288 2.80576 2.27328z m-208.90624 245.11488l377.25184 377.25184 190.80192-190.8224-377.2416-377.2416-190.81216 190.81216z m471.94112 471.9616c22.45632 22.44608 52.30592 34.816 84.06016 34.816s61.60384-12.36992 84.04992-34.816l22.71232-22.71232c22.44608-22.44608 34.816-52.29568 34.816-84.04992s-12.36992-61.60384-34.816-84.04992l-58.5216-58.5216-190.80192 190.8224 58.50112 58.51136zM171.73504 259.74784l182.85568-182.86592c-55.66464-30.9248-174.42816-68.096-264.93952-92.09856 20.16256 94.13632 52.6848 217.86624 82.08384 274.96448z"  horiz-adv-x="1024" />

    
    <glyph glyph-name="huodong" unicode="&#58896;" d="M564.926 30.388c-1.659 0-3.393 0.075-5.052 0.353-15.787 2.225-27.929 14.267-30.155 30.080l-39.842 283.95-329.566 46.181c-9.817 1.418-17.512 9.112-18.892 18.893-1.343 9.817 3.922 19.357 12.996 23.342l678.626 301.359c13.414 5.969 28.921 3.105 39.332-7.342 10.458-10.419 13.321-25.881 7.314-39.368l-119.912-270.185c-4.987-11.152-18.161-16.204-29.274-11.263-11.199 4.977-16.24 18.077-11.272 29.273l110.496 248.808-586.43-260.359 259.468-36.413c15.582-2.225 27.939-14.647 30.164-30.155l36.366-259.506 85.494 192.624c4.987 11.188 18.122 16.315 29.312 11.263 11.198-4.977 16.24-18.076 11.272-29.237l-98.241-221.371c-5.784-12.959-18.325-20.932-32.202-20.932z"  horiz-adv-x="1025" />

    
    <glyph glyph-name="erweima" unicode="&#58936;" d="M174.08 347.648h686.08c12.8 0 22.528 10.24 22.528 22.528s-9.728 22.016-22.528 22.016h-686.08c-12.288 0-22.016-9.728-22.016-22.016s9.728-22.528 22.016-22.528zM517.12 444.928c12.288 0 22.528 9.728 22.528 22.016V713.216c0 12.8-10.24 22.528-22.528 22.528s-22.016-9.728-22.016-22.528v-246.272c-0.512-12.288 9.728-22.016 22.016-22.016zM517.12 296.448c-12.288 0-22.016-9.728-22.016-22.528v-246.272c0-12.288 9.728-22.016 22.016-22.016s22.528 9.728 22.528 22.016v246.272c0 12.8-10.24 22.528-22.528 22.528zM631.296 296.448c-12.288 0-22.016-9.728-22.016-22.528v-246.272c0-12.288 9.728-22.016 22.016-22.016s22.528 9.728 22.528 22.016v246.272c0 12.8-9.728 22.528-22.528 22.528zM745.472 296.448c-12.288 0-22.016-9.728-22.016-22.528v-73.728c0-12.288 9.728-22.016 22.016-22.016s22.528 9.728 22.528 22.016v73.728c0 12.8-10.24 22.528-22.528 22.528zM745.472 141.312c-12.288 0-22.016-9.728-22.016-22.528v-90.624c0-12.288 9.728-22.016 22.016-22.016s22.528 9.728 22.528 22.016v90.624c0 12.8-10.24 22.528-22.528 22.528zM859.648 296.448c-12.288 0-22.016-9.728-22.016-22.528v-246.272c0-12.288 9.728-22.016 22.016-22.016s22.528 9.728 22.528 22.016v246.272c0.512 12.8-10.24 22.528-22.528 22.528zM201.216 446.464h188.416c27.136 0 49.152 22.016 49.152 49.152v188.416c0 27.136-22.016 49.152-49.152 49.152h-188.416c-27.136 0-49.152-22.016-49.152-49.152v-188.416c0-27.136 22.016-49.152 49.152-49.152zM833.536 733.696H645.12c-27.136 0-49.152-22.016-49.152-49.152v-188.416c0-27.136 22.016-49.152 49.152-49.152h188.416c27.136 0 49.152 22.016 49.152 49.152v188.416c0 26.624-22.016 49.152-49.152 49.152zM389.632 294.4h-188.416c-27.136 0-49.152-22.016-49.152-49.152v-188.416c0-27.136 22.016-49.152 49.152-49.152h188.416c27.136 0 49.152 22.016 49.152 49.152v188.416c0.512 27.136-21.504 49.152-49.152 49.152z"  horiz-adv-x="1024" />

    
    <glyph glyph-name="gerensvg" unicode="&#58900;" d="M672.525 298.145c93.976 55.907 157.108 158.452 157.108 275.504 0 176.651-143.727 320.371-320.378 320.371-176.659 0-320.378-143.72-320.378-320.371 0-117.060 63.132-219.604 157.108-275.504-171.262-65.849-293.169-231.98-293.169-426.145h86.7c0 203.882 165.864 369.754 369.74 369.754s369.74-165.872 369.74-369.754h86.7c0 194.165-121.908 360.297-293.169 426.145zM275.576 573.649c0 128.844 104.828 233.671 233.678 233.671 128.851 0 233.678-104.828 233.678-233.671 0-128.851-104.828-233.686-233.678-233.686-128.851 0-233.678 104.828-233.678 233.686z"  horiz-adv-x="1024" />

    
    <glyph glyph-name="shezhi" unicode="&#58884;" d="M905.86 467.979l-0.002 0-71.797 15.945c-5.594 17.868-12.887 34.998-21.324 51.473l38.849 64.668c14.509 23.2 21.803 57.282 0 79.129l-39.588 39.547c-10.662 10.708-24.994 15.206-39.461 15.206-14.985 0-30.151-4.895-41.465-12.759l-62.972-40.112c-16.343 8.477-33.384 15.731-51.125 21.499l-16.121 72.621c-4.806 26.654-28.1 55.492-58.989 55.492l-55.932 0c-30.897 0-49.815-29.276-55.932-55.93l-17.963-71.746c-18.917-6.03-37.143-13.761-54.445-22.897l-64.538 41.075c-11.361 7.865-26.481 12.759-41.512 12.759-14.42 0-28.752-4.497-39.46-15.206l-39.543-39.547c-21.848-21.846-14.507-55.93 0-79.128l40.854-68.078c-7.644-15.469-14.461-31.374-19.705-48.064l-71.75-15.946c-26.654-4.812-55.495-28.099-55.495-58.995l0-55.93c0-30.889 29.277-49.813 55.932-55.93l72.665-18.13c5.029-15.428 11.273-30.237 18.4-44.569l-40.899-68.165c-14.508-23.157-21.807-57.24 0-79.087l39.588-39.548c10.663-10.704 24.994-15.248 39.455-15.248 14.991 0 30.151 4.894 41.471 12.758l64.672 41.249c17.432-9.217 35.744-17.041 54.795-23.071l17.917-71.573c6.118-26.653 25.035-55.931 55.932-55.931l55.933 0c30.89 0 54.184 28.84 58.989 55.493l16.122 72.838c17.565 5.685 34.433 12.853 50.559 21.194l63.1-40.199c11.313-7.866 26.481-12.76 41.465-12.76 14.467 0 28.8 4.546 39.461 15.248l39.588 39.548c21.803 21.847 14.509 55.93 0 79.089l-38.89 64.757c7.819 15.38 14.596 31.371 20.055 47.976l72.671 18.132c26.655 6.115 55.932 25.039 55.932 55.93l0 55.93C961.354 439.879 932.516 463.167 905.86 467.979zM514.684 247.971c-74.593 0-135.333 60.562-135.333 134.931s60.739 134.889 135.333 134.889c74.588 0 135.287-60.52 135.287-134.889S589.272 247.971 514.684 247.971z"  horiz-adv-x="1024" />

    
    <glyph glyph-name="chuanzhen" unicode="&#58964;" d="M997.901049 437.477261c14.328836 0 25.587206 11.258371 25.587207 25.587207v102.348825c0 42.474763-34.286857 76.761619-76.761619 76.76162h-98.766617v177.063468c0 42.474763-34.286857 76.761619-76.761619 76.761619h-518.396802c-42.474763 0-76.761619-34.286857-76.761619-76.761619v-177.063468H76.761619c-42.474763 0-76.761619-34.286857-76.761619-76.76162v-375.108445c0-42.474763 34.286857-76.761619 76.761619-76.76162h98.766617v-164.269865c0-42.474763 34.286857-76.761619 76.761619-76.761619h518.396802c42.474763 0 76.761619 34.286857 76.761619 76.761619v164.269865H946.726637c42.474763 0 76.761619 34.286857 76.761619 76.76162v122.81859c0 14.328836-11.258371 25.587206-25.587207 25.587207s-25.587206-11.258371-25.587206-25.587207v-122.81859c0-14.328836-11.258371-25.587206-25.587206-25.587207h-98.766617V326.94053c0 42.474763-34.286857 76.761619-76.761619 76.761619h-518.396802c-42.474763 0-76.761619-34.286857-76.761619-76.761619v-162.222889H76.761619c-14.328836 0-25.587206 11.258371-25.587206 25.587207v375.108445c0 14.328836 11.258371 25.587206 25.587206 25.587207h869.965018c14.328836 0 25.587206-11.258371 25.587206-25.587207v-102.348825c0-14.328836 11.258371-25.587206 25.587206-25.587207z m-771.1984-111.048475c0 14.328836 11.258371 25.587206 25.587206 25.587206h518.396802c14.328836 0 25.587206-11.258371 25.587206-25.587206v-377.667167c0-14.328836-11.258371-25.587206-25.587206-25.587206h-518.396802c-14.328836 0-25.587206 11.258371-25.587206 25.587206v377.667167z m0 315.746127v177.063468c0 14.328836 11.258371 25.587206 25.587206 25.587206h518.396802c14.328836 0 25.587206-11.258371 25.587206-25.587206v-177.063468h-569.571214z"  horiz-adv-x="1024" />

    
    <glyph glyph-name="tongji" unicode="&#58942;" d="M742.686 831.761h262.609v-893.833h-262.61V831.761zM382.525 384.852h262.617v-446.924H382.525V384.852zM21.898 569.143h262.61v-631.216H21.897V569.143z"  horiz-adv-x="1031" />

    
    <glyph glyph-name="fenxiang" unicode="&#59044;" d="M638.976 109.568l-286.72 139.264c-32.768-40.96-81.92-67.584-137.216-67.584-96.256 0-174.08 77.824-174.08 174.08s77.824 174.08 174.08 174.08c53.248 0 98.304-22.528 131.072-59.392l278.528 159.744c-18.432 49.152-16.384 106.496 10.24 155.648 49.152 88.064 161.792 120.832 249.856 71.68 81.92-45.056 116.736-147.456 79.872-233.472-4.096-10.24-16.384-14.336-26.624-10.24-10.24 4.096-14.336 16.384-10.24 26.624 28.672 67.584 2.048 145.408-61.44 182.272-69.632 38.912-155.648 14.336-194.56-55.296-38.912-69.632-14.336-155.648 55.296-194.56 38.912-22.528 83.968-24.576 124.928-6.144 10.24 4.096 22.528 0 26.624-10.24 4.096-10.24 0-22.528-10.24-26.624-51.2-22.528-110.592-18.432-161.792 8.192-26.624 14.336-47.104 34.816-63.488 57.344L368.64 435.2c12.288-24.576 20.48-51.2 20.48-79.872 0-26.624-6.144-49.152-16.384-71.68l280.576-135.168c28.672 55.296 88.064 94.208 155.648 94.208 96.256 0 174.08-77.824 174.08-174.08s-77.824-174.08-174.08-174.08-174.08 77.824-174.08 174.08c0 14.336 2.048 26.624 4.096 40.96z m-423.936 112.64c73.728 0 133.12 59.392 133.12 133.12s-59.392 133.12-133.12 133.12-133.12-59.392-133.12-133.12 59.392-133.12 133.12-133.12z m593.92-286.72c73.728 0 133.12 59.392 133.12 133.12s-59.392 133.12-133.12 133.12-133.12-59.392-133.12-133.12 59.392-133.12 133.12-133.12z"  horiz-adv-x="1024" />

    
    <glyph glyph-name="xitongguanli" unicode="&#58902;" d="M940.194373 896h-811.867007C57.616368 896 0 838.383632 0 767.672634v-576.163683c0-70.710997 57.616368-128.327366 128.327366-128.327365h811.867007c70.710997 0 128.327366 57.616368 128.327366 128.327365v576.163683c2.618926 70.710997-54.997442 128.327366-128.327366 128.327366z m57.616369-704.491049c0-31.42711-26.189258-54.997442-54.997443-54.997442H130.946292c-31.42711 0-54.997442 26.189258-54.997443 54.997442v576.163683c0 31.42711 26.189258 54.997442 54.997443 54.997443h811.867007c31.42711 0 54.997442-26.189258 54.997443-54.997443v-576.163683zM906.148338-52.051151h-204.276215v20.951407c0 18.332481-13.094629 31.42711-31.42711 31.42711H377.12532c-18.332481 0-31.42711-13.094629-31.42711-31.42711v-20.951407H144.040921c-20.951407 0-36.664962-15.713555-36.664962-36.664962S123.089514-125.381074 144.040921-125.381074h762.107417c20.951407 0 36.664962 15.713555 36.664961 36.664961s-15.713555 36.664962-36.664961 36.664962zM350.936061 621.012788c-34.046036 0-60.235294-26.189258-60.235294-60.235294s26.189258-60.235294 60.235294-60.235295 60.235294 26.189258 60.235294 60.235295-26.189258 60.235294-60.235294 60.235294z m0-96.900256c-20.951407 0-36.664962 15.713555-36.664961 36.664962s15.713555 36.664962 36.664961 36.664961 36.664962-15.713555 36.664962-36.664961-18.332481-36.664962-36.664962-36.664962zM893.053708 631.488491l-20.951406 2.618926v5.237852l15.713555 13.094629c2.618926 5.237852 5.237852 7.856777 7.856777 13.094629 2.618926 5.237852 0 10.475703-2.618926 15.713555l-13.094629 23.570332c-7.856777 7.856777-18.332481 13.094629-26.189258 7.856778l-20.951407-7.856778-2.618926 2.618926 7.856778 20.951407c2.618926 5.237852 2.618926 7.856777 0 13.094629s-5.237852 10.475703-7.856778 13.094629l-23.570332 13.094629c-10.475703 5.237852-20.951407 2.618926-26.189258-5.237851l-13.094629-15.713555h-5.237852l-5.237852 20.951406c0 10.475703-10.475703 18.332481-18.332481 18.332481h-28.808184c-10.475703 0-18.332481-7.856777-18.332481-18.332481l-2.618925-20.951406h-5.237852l-13.094629 15.713555c-5.237852 7.856777-15.713555 10.475703-26.189259 5.237851l-23.570332-13.094629c-5.237852-2.618926-7.856777-7.856777-7.856777-13.094629v-13.094629l7.856777-20.951407-2.618926-2.618926-23.570332 7.856778h-13.094629c-5.237852-2.618926-10.475703-5.237852-13.09463-7.856778l-13.094629-23.570332c-2.618926-5.237852-2.618926-10.475703-2.618926-15.713555 2.618926-5.237852 5.237852-10.475703 7.856778-10.475703l15.713555-15.713555v-5.237852l-20.951407-5.237852c-10.475703 0-18.332481-10.475703-18.332481-18.332481V581.7289c0-10.475703 7.856777-18.332481 18.332481-18.332481l20.951407-2.618925v-5.237852l-15.713555-13.094629c-2.618926-2.618926-5.237852-5.237852-7.856778-10.475704-2.618926-5.237852 0-10.475703 2.618926-15.713555l13.094629-23.570332c5.237852-10.475703 18.332481-13.094629 23.570333-7.856777l20.951407 7.856777 2.618925-2.618926-7.856777-20.951406c-2.618926-5.237852-2.618926-7.856777 0-13.09463s5.237852-10.475703 7.856777-13.094629l23.570333-13.094629c5.237852-2.618926 10.475703-2.618926 15.713555-2.618926 5.237852 2.618926 10.475703 5.237852 10.475703 7.856778l13.094629 15.713555h5.237852l5.237852-20.951407c0-10.475703 10.475703-18.332481 18.33248-18.332481h28.808185c10.475703 0 18.332481 7.856777 18.33248 18.332481l2.618926 20.951407h5.237852l13.094629-15.713555c2.618926-2.618926 5.237852-5.237852 10.475703-7.856778 5.237852-2.618926 10.475703 0 15.713555 2.618926l23.570333 13.094629c10.475703 5.237852 13.094629 18.332481 7.856777 23.570333l-7.856777 20.951406 2.618926 2.618926 20.951406-7.856777c7.856777-5.237852 20.951407 0 26.189259 7.856777l13.094629 23.570333c5.237852 10.475703 2.618926 20.951407-5.237852 26.189258l-15.713555 13.094629v5.237852l20.951407 5.237851c10.475703 0 18.332481 10.475703 18.332481 18.332481v28.808184c5.237852 13.094629-2.618926 20.951407-13.09463 20.951407z m-10.475703-39.283887l-34.046036-7.856778-2.618926-10.475703c0-5.237852-2.618926-10.475703-5.237851-18.332481l-2.618926-10.475703 26.189258-20.951407-5.237851-10.475703-20.951407 7.856777-10.475703 7.856778-10.475704-10.475704c-5.237852-5.237852-7.856777-10.475703-13.094629-13.094629l-10.475703-7.856777 7.856777-10.475704 7.856778-20.951406-10.475703-5.237852-15.713555 15.713555-5.237852 10.475703-13.094629-5.237851c-7.856777-2.618926-13.094629-5.237852-18.332481-5.237852l-10.475703-2.618926-5.237852-34.046036h-13.094629l-7.856778 34.046036-7.856777 2.618926c-5.237852 0-10.475703 2.618926-18.332481 5.237852l-13.094629 5.237851-5.237852-10.475703-13.094629-15.713555-10.475703 5.237852 7.856777 20.951406 7.856778 10.475704-13.09463 5.237851c-5.237852 5.237852-10.475703 7.856777-13.094629 13.094629l-7.856777 13.09463-10.475703-5.237852-20.951407-7.856778-5.237852 10.475704 15.713555 15.713555 10.475704 7.856777-2.618926 10.475704c-2.618926 7.856777-5.237852 13.094629-5.237852 18.33248l-2.618926 10.475704-34.046036 5.237851V607.918159l34.046036 7.856777 2.618926 10.475703c0 5.237852 2.618926 10.475703 5.237852 18.332481l5.237851 13.094629H602.352941l-15.713555 13.09463 5.237852 10.475703 20.951407-7.856778 10.475703-5.237851 7.856777 10.475703c5.237852 5.237852 7.856777 10.475703 13.094629 13.094629l10.475704 7.856778-7.856778 10.475703-7.856777 20.951407 10.475703 7.856777 15.713555-15.713555 5.237852-10.475703 13.094629 5.237851c7.856777 2.618926 13.094629 5.237852 18.332481 5.237852l10.475703 2.618926 5.237852 34.046036h13.094629l7.856777-34.046036 10.475704-2.618926c5.237852 0 10.475703-2.618926 18.332481-5.237852l10.475703-2.618925 20.951407 26.189258 10.475703-5.237852-7.856778-20.951406-7.856777-10.475704 10.475703-7.856777c5.237852-5.237852 10.475703-7.856777 13.094629-13.094629l10.475704-10.475704 10.475703 2.618926 20.951407 7.856778 5.237851-10.475704-15.713555-15.713555-10.475703-5.237851 5.237852-13.094629c2.618926-7.856777 5.237852-13.094629 5.237851-18.332481l2.618926-10.475704 34.046036-5.237851v-13.094629zM725.442455 670.772379c-39.283887 0-70.710997-31.42711-70.710997-70.710998s31.42711-70.710997 70.710997-70.710997 70.710997 31.42711 70.710998 70.710997-31.42711 70.710997-70.710998 70.710998z m0-115.232737c-23.570332 0-41.902813 18.332481-41.902813 41.902813s18.332481 41.902813 41.902813 41.902814 41.902813-18.332481 41.902814-41.902814-20.951407-41.902813-41.902814-41.902813zM591.877238 364.358056l-10.475703 2.618926v2.618926l7.856777 7.856777c2.618926 2.618926 5.237852 2.618926 5.237852 7.856778v7.856777l-7.856778 13.09463c-2.618926 2.618926-2.618926 5.237852-7.856777 5.237851h-7.856778l-10.475703-5.237851-2.618926 2.618925 2.618926 10.475704c2.618926 2.618926 2.618926 5.237852 0 7.856777 0 2.618926-2.618926 5.237852-5.237852 7.856778l-13.094629 7.856777c-5.237852 2.618926-13.094629 0-13.094629-2.618926l-7.856778-10.475703h-2.618925l-2.618926 10.475703c0 5.237852-5.237852 10.475703-10.475704 10.475704h-15.713555c-5.237852 0-10.475703-5.237852-10.475703-10.475704l-2.618926-13.094629h-2.618926l-7.856777 7.856778c-2.618926 5.237852-10.475703 7.856777-15.713555 5.237851l-2.618926-2.618925v10.475703l-7.856777 18.332481 2.618925 2.618926 15.713555-5.237852c7.856777-5.237852 18.332481-2.618926 23.570333 5.237852l13.094629 20.951406c5.237852 7.856777 2.618926 18.332481-5.237852 20.951407l-13.094629 10.475703v2.618926l15.713555 2.618926c10.475703 0 15.713555 7.856777 15.713555 15.713555v23.570332c0 7.856777-7.856777 15.713555-15.713555 15.713555l-18.332481 2.618926v2.618926l13.09463 10.475703c2.618926 2.618926 7.856777 5.237852 7.856777 10.475704s0 7.856777-2.618926 13.094629l-13.094629 20.951406c-2.618926 2.618926-5.237852 7.856777-10.475703 7.856778h-10.475704l-18.33248-7.856778-2.618926 2.618926 7.856777 23.570333c2.618926 2.618926 2.618926 7.856777 2.618926 13.094629s-2.618926 7.856777-7.856777 10.475703l-20.951407 13.094629c-2.618926 2.618926-7.856777 2.618926-13.094629 2.618926s-7.856777-2.618926-7.856778-5.237852l-13.094629-15.713554h-2.618926l-2.618925 15.713554c0 10.475703-7.856777 15.713555-15.713555 15.713555H340.460358c-10.475703 0-15.713555-7.856777-15.713555-15.713555l-5.237852-15.713554h-2.618925l-10.475704 13.094629c-2.618926 2.618926-5.237852 7.856777-10.475703 7.856777s-7.856777 0-13.094629-2.618926l-23.570333-13.094629c-7.856777-5.237852-10.475703-15.713555-5.237851-20.951406l7.856777-18.332481-2.618926-2.618926-18.332481 5.237852c-2.618926 2.618926-7.856777 2.618926-13.094629 2.618925s-7.856777-2.618926-10.475703-7.856777l-13.094629-20.951407c-2.618926-7.856777 0-18.332481 5.237851-20.951406l15.713555-10.475704v-2.618926l-15.713555-2.618925c-10.475703 0-15.713555-7.856777-15.713554-15.713555v-23.570333c0-7.856777 7.856777-15.713555 15.713554-15.713555l18.332481-2.618926v-2.618926l-13.094629-10.475703c-7.856777-5.237852-10.475703-15.713555-5.237852-23.570332l13.09463-20.951407c2.618926-2.618926 5.237852-7.856777 10.475703-7.856777h10.475703l18.332481 7.856777 2.618926-2.618926-10.475703-23.570332c-2.618926-2.618926-2.618926-7.856777-2.618926-13.094629s2.618926-7.856777 7.856777-10.475704l20.951407-13.094629c7.856777-5.237852 18.332481-2.618926 20.951407 5.237852l13.094629 13.094629h2.618926l2.618925-15.713555c0-10.475703 7.856777-15.713555 15.713555-15.713555h23.570333c10.475703 0 15.713555 7.856777 15.713555 15.713555l2.618926 18.332481h2.618926l10.475703-13.094629c2.618926-2.618926 5.237852-7.856777 10.475703-7.856778s7.856777 0 13.094629 2.618926l13.094629 7.856777v-5.237851l5.237852-10.475704-2.618926-2.618925-10.475703 2.618925c-2.618926 2.618926-5.237852 2.618926-7.856778 0-2.618926 0-5.237852-2.618926-7.856777-5.237851l-7.856777-13.094629c-2.618926-2.618926-2.618926-5.237852 0-7.856778 0-2.618926 2.618926-5.237852 5.237851-5.237852l10.475703-7.856777v-2.618926l-10.475703-2.618926c-5.237852 0-10.475703-5.237852-10.475703-10.475703v-15.713555c0-5.237852 5.237852-10.475703 10.475703-10.475703l13.094629-2.618926v-2.618926l-7.856777-7.856778c-2.618926-2.618926-5.237852-2.618926-5.237852-7.856777v-7.856778l7.856778-13.094629c2.618926-2.618926 2.618926-5.237852 7.856777-5.237851h7.856778l10.475703 5.237851 2.618926-2.618926-2.618926-10.475703c-2.618926-2.618926-2.618926-5.237852 0-7.856777s2.618926-5.237852 5.237852-7.856778l13.094629-7.856777c5.237852-2.618926 13.094629 0 13.094629 2.618926l7.856777 10.475703h2.618926l2.618926-10.475703c0-5.237852 5.237852-10.475703 10.475703-10.475704h15.713555c5.237852 0 10.475703 5.237852 10.475704 10.475704l2.618926 13.094629h2.618925l7.856778-7.856778c2.618926-2.618926 2.618926-5.237852 7.856777-5.237851h7.856778l13.094629 7.856777c2.618926 2.618926 5.237852 2.618926 5.237852 7.856778v7.856777l-5.237852 10.475703 2.618926 2.618926 10.475703-2.618926c5.237852-2.618926 13.094629 0 15.713555 5.237852l7.856778 13.094629c2.618926 5.237852 0 13.094629-2.618926 13.094629l-10.475703 7.856778v2.618926l10.475703 2.618925c5.237852 0 10.475703 5.237852 10.475703 10.475704v15.713555c0 2.618926-5.237852 7.856777-10.475703 7.856777z m-175.468031 99.519182l5.237852-18.332481-10.475704-5.237852-13.094629 15.713555-5.237851 7.856778-10.475704-2.618926c-5.237852-2.618926-10.475703-2.618926-15.713555-5.237852l-7.856777-2.618925-2.618926-28.808185h-10.475703l-5.237852 28.808185-7.856777 2.618925c-5.237852 0-10.475703 2.618926-15.713555 5.237852l-13.09463 5.237852-2.618925-10.475704-13.09463-15.713555-7.856777 5.237852 5.237852 18.332481 5.237851 7.856777-7.856777 7.856778c-5.237852 2.618926-7.856777 7.856777-13.094629 13.094629l-7.856778 7.856777-7.856777-5.237851-18.332481-7.856778-5.237852 10.475704 13.094629 13.094629 10.475704 5.237851-2.618926 10.475704c-2.618926 5.237852-2.618926 10.475703-5.237852 15.713555l-2.618926 7.856777-28.808184 5.237852v10.475703l28.808184 5.237852 2.618926 7.856777c0 5.237852 2.618926 10.475703 5.237852 15.713555l2.618926 10.475704-7.856778 5.237851-15.713555 13.09463 5.237852 7.856777 18.332481-5.237852 7.856777-5.237851 7.856778 7.856777c2.618926 5.237852 7.856777 7.856777 13.094629 13.094629l7.856777 7.856778-5.237851 7.856777-5.237852 18.332481 7.856777 2.618926 13.09463-13.094629 5.237851-7.856778 7.856778 2.618926c5.237852 2.618926 10.475703 2.618926 15.713555 5.237852h10.475703l5.237852 28.808184h10.475703l5.237852-28.808184 7.856777-2.618926c5.237852 0 10.475703-2.618926 15.713555-5.237852l10.475704-2.618925 5.237851 7.856777 13.094629 15.713555 10.475704-5.237852-5.237852-18.33248-5.237852-7.856778 5.237852-7.856777c5.237852-2.618926 7.856777-7.856777 13.094629-13.09463l7.856778-7.856777 7.856777 5.237852 18.332481 7.856777 5.237852-10.475703-13.09463-13.094629-13.094629-2.618926 2.618926-10.475704c2.618926-5.237852 2.618926-10.475703 5.237852-15.713555l2.618926-7.856777 28.808184-5.237852v-10.475703l-28.808184-5.237852-2.618926-7.856777c0-5.237852-2.618926-10.475703-5.237852-15.713555l-2.618926-10.475704 7.856778-5.237851 15.713555-13.094629-5.237852-10.475704-18.332481 7.856778-7.856777 5.237851-7.856778-7.856777c-2.618926-5.237852-7.856777-7.856777-13.094629-13.094629l-7.856777-7.856778 7.856777-7.856777z m170.230179-123.089514l-18.332481-2.618926v-5.237852c0-2.618926-2.618926-7.856777-2.618925-10.475703l-2.618926-5.237852 15.713555-10.475703-2.618926-5.237852-13.094629 2.618926-5.237852 2.618926-7.856777-7.856778-7.856778-7.856777-5.237852-5.237852 5.237852-5.237851 5.237852-10.475704-5.237852-2.618925-7.856777 7.856777v7.856777l-10.475704-5.237851c-2.618926 0-7.856777-2.618926-10.475703-2.618926h-5.237852l-2.618926-18.332481H497.595908l-2.618926 18.332481h-5.237852c-2.618926 0-7.856777 2.618926-10.475703 2.618926l-7.856777 2.618926-2.618926-5.237852-7.856778-10.475703-5.237851 2.618926 5.237851 10.475703 5.237852 5.237851-5.237852 5.237852-7.856777 7.856778-5.237852 5.237851-18.332481-7.856777-10.475703 10.475703 10.475703 7.856778 5.237852 2.618925-2.618926 7.856778c0 2.618926-2.618926 7.856777-2.618926 10.475703v5.237852l-18.332481 2.618926v7.856777l18.332481 2.618926v5.237852c0 2.618926 2.618926 7.856777 2.618926 10.475703l2.618926 7.856778-7.856778 2.618925-7.856777 7.856778 2.618926 5.237852 10.475703-2.618926 5.237852-5.237852 5.237851 5.237852 7.856778 7.856777 5.237852 5.237852-2.618926 5.237852-5.237852 10.475703 5.237852 2.618926 7.856777-7.856778v-10.475703l13.094629 5.237852c2.618926 0 7.856777 2.618926 10.475704 2.618925h5.237851l2.618926 18.332481h7.856778l2.618926-18.332481h5.237851c2.618926 0 7.856777-2.618926 10.475704-2.618925l5.237851-2.618926 5.237852 5.237851 5.237852 7.856778 5.237851-2.618926-5.237851-13.094629-2.618926-5.237852 5.237851-5.237851 7.856778-7.856778 5.237852-5.237852 5.237851 5.237852 10.475704 5.237852 2.618925-5.237852-7.856777-7.856777-7.856778-2.618926 2.618926-7.856778c0-2.618926 2.618926-7.856777 2.618926-10.475703v-5.237852l18.332481-2.618926v-5.237851zM497.595908 385.309463c-20.951407 0-39.283887-18.332481-39.283888-39.283888s18.332481-39.283887 39.283888-39.283887 39.283887 18.332481 39.283887 39.283887-18.332481 39.283887-39.283887 39.283888z m0-65.473146c-13.094629 0-23.570332 10.475703-23.570333 23.570333s10.475703 23.570332 23.570333 23.570332 23.570332-10.475703 23.570332-23.570332-10.475703-23.570332-23.570332-23.570333z"  horiz-adv-x="1071" />

    
    <glyph glyph-name="tupianshangchuan" unicode="&#58938;" d="M712.5 107.2H194.2c-22.5 0-43 8.8-58.7 23.3l146.9 183.2c7.9 9.8 19 15.5 31.2 15.9 12.2 0.4 23.6-4.6 32-13.9l12.9-14.3c17.1-19 41-28.8 65.8-27.1 24.7 1.7 47.2 14.9 61.8 36L560.2 418c8 11.7 20.5 18.4 34.1 18.5h0.3c13.6 0 26-6.6 34.1-18.1l76.7-108.9c6.8-9.6 19.6-11.5 28.6-4.3 8.9 7.1 10.7 20.4 4 29.9L661.3 444c-15.9 22.5-40.1 35.4-66.7 35.4h-0.5c-26.8-0.2-51.1-13.4-66.8-36.2l-74.1-107.8c-7.4-10.8-18.9-17.5-31.6-18.4-12.6-0.9-24.9 4.2-33.6 13.8l-12.9 14.3c-16.2 18-39.1 28-62.7 27.3-23.6-0.7-45.8-12-61.1-31l-140-174.7c-4 10.7-6.3 22.5-6.3 34.7V567.1c0 52 40 94.2 89.2 94.2H767c49.3 0 89.2-42.2 89.2-94.2v-181.3c0-11.9 9.1-21.5 20.3-21.5s20.3 9.6 20.3 21.5V567.1c0 75.7-58.2 137.1-129.9 137.1H194.2c-71.7 0-129.9-61.4-129.9-137.1v-365.7c0-75.7 58.2-137.1 129.9-137.1h518.3c11.2 0 20.3 9.6 20.3 21.5 0 11.8-9.1 21.4-20.3 21.4zM926.6 223.3h-52.5v54.5c0 19.4-14.9 35.1-33.2 35.1s-33.2-15.7-33.2-35.1v-54.5h-53.6c-18.3 0-33.2-15.7-33.2-35.1 0-19.4 14.9-35.1 33.2-35.1h53.6v-53.9c0-19.4 14.9-35.1 33.2-35.1s33.2 15.7 33.2 35.1v53.9h52.5c18.3 0 33.2 15.7 33.2 35.1 0 19.4-14.9 35.1-33.2 35.1zM256.5 479.9c-35 0-63.6 28.5-63.6 63.6 0 35 28.5 63.6 63.6 63.6s63.6-28.5 63.6-63.6-28.6-63.6-63.6-63.6z m0 89.2c-14.1 0-25.6-11.5-25.6-25.6 0-14.1 11.5-25.6 25.6-25.6 14.1 0 25.6 11.5 25.6 25.6 0 14.1-11.5 25.6-25.6 25.6z"  horiz-adv-x="1024" />

    
    <glyph glyph-name="shenghuobaike" unicode="&#59202;" d="M451.8697 197.591772s235.245807-186.005003 441.957565 264.681183c0 0-436.217548 82.020569-441.957565-264.681183z m35.222829-230.54943c-71.299546 96.441768-130.763272 256.118595-16.366163 475.923284 199.003058 382.683591-54.316687 453.034374-54.316687 453.034374s214.918558-95.706476 11.527472-420.302048C488.420798 748.609654 108.963001 829.230798 108.963001 829.230798 116.1736 417.799685 319.446092 405.181136 387.021743 412.415454c-124.999537-197.342722-88.614472-351.587881-35.626054-446.843695-87.855462-13.35384-153.20152-49.549152-161.289725-93.642916h468.926156c-8.443991 45.848976-78.747336 83.206523-171.939591 95.113499z"  horiz-adv-x="1024" />

    
    <glyph glyph-name="shanchu1" unicode="&#58901;" d="M902.950352 542.065528H121.522264c-67.022304 0-121.522227 50.247039-121.522228 111.91386v12.443624c0 61.745578 54.499923 111.913859 121.522228 111.913859h781.428088c67.022304 0 121.522227-50.168282 121.522227-111.913859v-12.443624c0-61.66682-54.499923-111.913859-121.522227-111.91386z m-781.428088 157.514229c-23.154592 0-42.765113-15.200123-42.765113-33.156745v-12.443624c0-18.035379 19.610521-33.156745 42.765113-33.156745h781.428088c23.154592 0 42.765113 15.200123 42.765113 33.156745v12.443624c0 17.956622-19.610521 33.156745-42.765113 33.156745H121.522264zM630.450736 777.785571h-78.757114a39.536071 39.536071 0 0 1-78.914629 0H394.021879c0 65.210891 53.003538 118.214429 118.214429 118.214429 65.210891 0 118.214429-53.003538 118.214428-118.214429zM749.216465-127.842486H275.334908c-64.895862 0-117.663129 50.955853-117.663129 113.725273V506.939855c0 62.690663 52.767267 113.725273 117.663129 113.725273H749.216465c64.895862 0 117.663129-50.955853 117.663128-113.725273v-521.057068c0-62.76942-52.767267-113.725273-117.663128-113.725273zM275.334908 541.908014c-21.421935 0-38.906014-15.672666-38.906015-34.968159v-521.057068c0-19.295493 17.484079-34.968159 38.906015-34.968158H749.216465c21.421935 0 38.906014 15.672666 38.906014 34.968158V506.939855c0 19.295493-17.484079 34.968159-38.906014 34.968159H275.334908zM392.840522 68.971543a39.457314 39.457314 0 0 0-39.378557-39.614829 39.457314 39.457314 0 0 0-39.378557 39.614829V383.684972c0 21.894478 17.641594 39.614828 39.378557 39.614828s39.378557-17.720351 39.378557-39.614828v-314.713429zM551.614865 61.017074c0-17.484079-17.641594-31.739117-39.378557-31.739117s-39.378557 14.176281-39.378557 31.739117V312.803569c0 17.484079 17.641594 31.739117 39.378557 31.739117s39.378557-14.176281 39.378557-31.739117V61.017074zM709.286608 334.698046c0-8.74204-17.641594-29.533918-39.378557-29.533917s-39.378557 20.791878-39.378558 29.533917V433.223196c0 8.74204 17.641594 29.533918 39.378558 29.533918s39.378557-20.791878 39.378557-29.533918v-98.52515zM709.286608 63.694816c0-13.152438-17.641594-34.416859-39.378557-34.416859s-39.378557 21.264421-39.378558 34.416859V232.392555c0 13.152438 17.641594 33.314259 39.378558 33.314259s39.378557-20.161821 39.378557-33.314259v-168.697739z"  horiz-adv-x="1024" />

    
    <glyph glyph-name="shoucang" unicode="&#58948;" d="M547.737493-127.999761A99.916145 99.916145 0 0 0 485.508029-106.426317c-14.50895 11.103358-285.267631 220.195482-396.484151 395.147245C51.491996 347.361854 0 427.81546 0 543.09899 0 737.682164 146.356044 896 326.38805 896a308.065399 308.065399 0 0 0 143.133396-35.786867 329.061862 329.061862 0 0 0 78.328629-57.909146 331.76382 331.76382 0 0 0 78.300483 57.895073A307.178819 307.178819 0 0 0 769.086936 896C949.062652 896 1095.474986 737.682164 1095.474986 543.09899c0-115.28353-51.491996-195.737136-89.094241-254.476571-110.864703-172.869004-380.272405-382.608472-396.273061-394.936154a99.916145 99.916145 0 0 0-62.370191-21.686026zM326.38805 811.563821C192.978887 811.563821 84.436179 691.129684 84.436179 543.09899c0-90.571875 42.006999-156.206931 75.767398-208.96547 104.137954-163.82026 373.883401-371.519188 376.54314-373.447147l0.830289-0.647344a16.12731 16.12731 0 0 1 20.306901 0l0.830289 0.633271c2.645667 1.98425 272.391113 211.090447 376.571286 373.489365 33.774472 52.716321 75.753325 118.351378 75.753325 208.923252C1011.038807 691.129684 902.496099 811.563821 769.086936 811.563821c-72.404023 0-140.726965-36.026103-187.476462-98.84662a42.218089 42.218089 0 0 0-67.872616 0.168872C467.579414 775.594009 399.29869 811.563821 326.38805 811.563821z"  horiz-adv-x="1095" />

    
    <glyph glyph-name="collect-active" unicode="&#58881;" d="M734.53112889 860.51953778c-87.96387555 0-169.51978667-44.27320889-223.69621334-117.09098667-53.59388445 72.81777778-135.73233778 117.09098667-223.69621333 117.09098667-158.45148445 0-287.19331555-140.97521778-287.19331555-313.99025778 0-103.10997333 46.02083555-175.92775111 83.30353778-234.18197333 107.77031111-169.51978667 379.23498667-379.81752889 390.8858311-388.55566222 11.06830222-8.73813333 23.88423111-12.81592889 36.70016-12.8159289s25.63185778 4.07779555 36.70016 12.8159289c11.65084445 8.73813333 282.53297778 219.61841778 390.88583112 388.55566222 37.28270222 58.25422222 83.30353778 131.072 83.30353778 234.18197333 0 173.01504-128.74183111 313.99025778-287.19331556 313.99025778z"  horiz-adv-x="1024" />

    
    <glyph glyph-name="edit" unicode="&#58883;" d="M978.7422368 708.6146912l-44.58777067-44.2854176L785.66973547 811.9003968l44.58777066 44.22320106c16.3630752 16.30194987 42.1569408 17.15661547 57.48524907 1.88615787l92.8256064-92.2176256C995.95779413 750.5249472 995.105312 724.9133664 978.7422368 708.6146912L978.7422368 708.6146912zM584.93144213 317.23254293L436.44780267 464.8058496l326.65461973 324.58617706 148.48582293-147.5722144L584.93144213 317.23254293 584.93144213 317.23254293zM564.25028693 296.67254826l-207.8539552-59.00247146 59.37031574 206.57796053L564.25028693 296.67254826 564.25028693 296.67254826zM218.18832427 745.47336106c-51.34104533 0-92.88673173-41.5456864-92.88673174-92.8256064l0-557.19704746c0-51.2668224 41.55987627-92.8277888 92.8277888-92.8277888l557.31820694 0c51.2679136 0 92.82997227 41.56096747 92.82997226 92.82997226L868.27756053 466.9354176l92.88454827 92.82997226 0-495.2758336c0-85.46653333-69.28465173-154.75009387-154.75009387-154.75009386L187.16604693-90.26053760000002c-85.46653333 0-154.75009387 69.28465173-154.75009386 154.75009386L32.41595307 683.6110912c0 85.46653333 69.28465173 154.75009387 154.75009386 154.75009386l495.39808534 0-92.88891414-92.88891413L218.18832427 745.47226986 218.18832427 745.47336106z"  horiz-adv-x="1024" />

    
    <glyph glyph-name="xiangjipaizhao" unicode="&#58914;" d="M616.67546908 600.66642011a266.66656787 266.66656787 0 1 1 266.66656787-266.66656787 266.66656787 266.66656787 0 0 1-266.66656788 266.66656788z m151.66661044-396.66652031a199.99992568 199.99992568 0 1 0-21.66665889 281.999896 199.99992568 199.99992568 0 0 0 21.66665889-282.3332291zM616.67546908 467.33313574a133.33328438 133.33328438 0 0 1-133.33328351-133.3332835 16.66666055 16.66666055 0 0 1 33.33332023 0 99.99996328 99.99996328 0 0 0 99.99996328 99.99996241 16.66666055 16.66666055 0 0 1 0 33.33332109zM1066.34196898 633.99974033l-144.3332795 23.9999915-45.66664951 113.33329102A99.99996328 99.99996328 0 0 1 783.34207366 833.9996669H450.00886448a99.99996328 99.99996328 0 0 1-92.99996542-62.99997716L311.34224866 656.6663994200001 167.00896917 633.99974033A99.99996328 99.99996328 0 0 1 83.34233333 533.9997779299999v-499.99981465a99.99996328 99.99996328 0 0 1 99.99996328-99.99996328h866.66634492a99.99996328 99.99996328 0 0 1 99.99996328 99.99996328V533.9997779299999a99.99996328 99.99996328 0 0 1-83.66663583 99.9999624zM1083.34196263 33.999963279999974a33.33332109 33.33332109 0 0 0-33.3333211-33.33332109H183.34229661a33.33332109 33.33332109 0 0 0-33.33332109 33.33332109V533.9997779299999a33.33332109 33.33332109 0 0 0 27.99998965 33.3333211l181.33326563 30.33332226 59.66664521 149.33327783A33.33332109 33.33332109 0 0 0 450.00886448 767.33302471h333.33320918a33.33332109 33.33332109 0 0 0 30.99998936-20.99999268l59.66664434-149.33327783 181.33326562-29.66665517A33.33332109 33.33332109 0 0 0 1083.34196263 533.9997779299999z"  horiz-adv-x="1213" />

    
    <glyph glyph-name="anlifenxi" unicode="&#58929;" d="M811.883 190.464l140.362-140.801c12.92-12.305 12.92-33.135 0.44-45.615-12.481-13.008-33.31-13.447-45.879-0.44l-141.24 141.065c-27.334-22.676-57.92-41.484-91.231-55.107-42.188-17.578-87.979-27.334-136.406-27.334-103.974 0-203.115 46.143-270.703 126.035-34.013 39.815 17.578 77.08 56.513 34.278 55.107-60.469 132.451-94.746 214.19-94.746 39.638 0 77.08 7.822 111.182 21.973 35.42 14.59 67.412 35.859 94.043 62.49l0.44 0.44c26.631 26.895 48.428 58.799 63.193 94.482 13.887 33.575 21.797 71.367 21.797 110.918 0 38.672-7.646 75.674-21.357 109.511l-0.44 1.406c-14.326 34.98-35.684 66.709-61.612 92.901l-1.582 1.583c-27.07 26.631-59.063 48.427-94.482 62.754-33.75 14.59-71.543 22.237-111.182 22.237-118.3 0-220.254-72.247-265.166-173.408-5.537-12.041-16.7-19.248-29.883-19.248h-0.176c-11.602 0-21.094 5.537-27.334 14.854-6.24 9.492-6.943 20.654-2.286 31.289 55.987 125.771 183.779 211.904 324.844 211.904 47.901 0 94.043-9.756 136.406-27.334 43.506-17.842 82.881-44.473 115.313-76.904l1.846-1.67c31.992-32.607 57.481-71.104 75.322-113.731l0.703-1.846c17.138-41.661 26.455-86.572 26.455-134.297 0-48.164-9.756-94.043-27.07-135.703-13.799-33.31-32.344-64.336-55.02-91.934zM81.511 327.135c-10.898 0-19.512 8.613-19.512 19.688 0 10.635 8.614 19.688 19.512 19.688h143.965l86.133 145.02c2.637 4.482 6.943 7.822 11.953 9.052 5.01 1.318 10.372 0.528 14.854-2.109 2.813-1.67 4.834-3.955 6.504-6.504l83.848-134.56 41.66 44.033c7.383 7.646 19.951 8.086 27.773 0.44 1.583-1.846 3.252-3.692 4.219-6.065l48.604-97.911 60.029 254.004c2.549 10.635 13.184 16.875 23.818 14.326 3.428-0.879 6.504-2.549 9.053-5.098l88.682-89.824c7.383-7.383 7.383-19.951-0.263-27.773-7.646-7.207-20.127-7.207-27.773 0.528l-63.633 64.336-64.599-272.109c-1.143-5.537-5.097-10.635-10.459-12.744-9.756-5.362-21.269-1.406-25.927 8.349l-60.205 122.08-39.375-41.221c-1.406-1.67-2.813-2.988-4.658-3.779-9.229-5.801-21.094-2.989-26.895 6.065l-80.156 128.497-75.059-125.947c-3.164-6.504-9.668-10.459-17.138-10.459H81.515z"  horiz-adv-x="1024" />

    
    <glyph glyph-name="huodongzhongxin" unicode="&#58954;" d="M205.2 358.4v-390.4s12.8-25.6 32-32h326.4V352H205.2zM960.4 358.4v-390.4s-12.8-25.6-32-32H602V358.4H960.4zM1024.4 537.6c-6.4 25.6-32 32-32 32h-108.8c12.8 12.8 25.6 25.6 38.4 44.8 25.6 38.4 25.6 96 0 140.8-25.6 44.8-64 70.4-115.2 76.8-25.6 0-51.2-6.4-70.4-19.2-19.2-12.8-38.4-25.6-51.2-51.2-25.6-38.4-44.8-76.8-44.8-89.6v-6.4c-25.6 6.4-44.8 6.4-64 6.4-19.2 0-38.4 0-57.6-6.4-6.4 12.8-57.6 160-160 160-108.8 0-140.8-76.8-147.2-108.8l38.4-12.8s19.2 76.8 102.4 83.2c76.8 0 121.6-115.2 128-140.8-6.4-12.8-12.8-19.2-12.8-25.6 0-6.4 6.4-12.8 12.8-19.2-89.6-25.6-140.8 51.2-281.6 89.6C38.8 716.8 0.4 640 0.4 640s-6.4-38.4 32-25.6c64 57.6 153.6 32 192 19.2 32-6.4 102.4-44.8 160-64H166.8s-25.6-6.4-32-32v-134.4h422.4V569.6h-12.8 64v-166.4H1024.4V537.6z m-358.4 108.8s0 6.4 6.4 12.8c6.4 25.6 64 140.8 140.8 134.4 51.2-6.4 76.8-38.4 89.6-57.6 19.2-32 19.2-76.8 0-102.4-32-51.2-76.8-51.2-76.8-51.2h-172.8c25.6 12.8 38.4 25.6 38.4 38.4l-25.6 25.6zM576.4 595.2h-19.2v6.4c-12.8 19.2-25.6 6.4-32 6.4 0 0-6.4 6.4-6.4 12.8 0 12.8 19.2 19.2 57.6 19.2 38.4 0 57.6-12.8 57.6-25.6 0-6.4-19.2-19.2-57.6-19.2z"  horiz-adv-x="1024" />

    
    <glyph glyph-name="navicon-wzgl" unicode="&#58977;" d="M487.424-78.84799999999996c-8.704 0-17.408 2.048-25.6 6.656C358.4-16.384000000000015 232.448-3.0720000000000027 87.04 12.799999999999955l-13.312 1.536c-33.28 3.072-58.368 30.72-58.368 64.512V619.52c0 35.328 29.184 65.024 65.024 66.048 163.84 2.56 306.688-26.624 424.448-87.552 21.504-10.752 35.328-33.792 35.328-57.856V-25.600000000000023c0-18.944-9.728-36.352-26.112-46.08-8.192-4.608-17.408-7.168-26.624-7.168zM100.864 634.3679999999999h-19.456c-8.192 0-14.848-6.656-14.848-14.848v-540.672c0-7.168 5.632-13.312 12.8-13.824l13.312-1.536c151.04-15.872 281.088-30.208 393.728-90.624h0.512c0.512-0.512 1.024-0.512 1.536 0 0.512 0.512 1.024 1.024 1.024 1.536V540.1600000000001c0 5.12-3.072 10.24-7.168 12.288-106.496 54.784-234.496 81.92-381.44 81.92zM544.256-77.31200000000001c-9.728 0-19.456 2.56-28.16 8.192-16.896 10.24-27.136 28.16-26.624 48.128V540.672c0 24.576 13.824 47.616 35.84 58.368 117.76 60.416 260.608 90.112 423.936 87.04 35.84-1.024 65.024-30.208 65.024-66.048v-540.672c0-33.792-25.088-61.44-58.88-65.024l-20.992-2.56c-141.312-15.36-263.168-29.184-364.032-82.944-8.192-4.096-17.408-6.144-26.112-6.144zM928.768 634.88c-146.432 0-274.432-27.648-380.416-81.92-4.608-2.56-7.68-7.168-7.68-12.8v-562.688c0-1.536 0.512-2.56 2.048-3.584 1.536-1.024 2.56-0.512 3.072 0h0.512c109.568 58.368 236.032 72.192 382.976 88.576l20.992 2.56c7.68 0.512 13.312 6.656 13.312 13.824V620.0319999999999c0 8.192-6.656 14.848-14.848 14.848h-19.968zM386.56 393.728c-3.072 0-6.656 0.512-9.728 2.048-67.584 27.136-136.704 40.96-204.288 40.96-14.336 0-25.6 11.264-25.6 25.6s11.264 25.6 25.6 25.6c74.24 0 149.504-14.848 223.744-45.056 13.312-5.12 19.456-19.968 14.336-33.28-4.096-9.728-13.824-15.872-24.064-15.872zM386.56 222.20799999999997c-3.072 0-6.656 0.512-9.728 2.048-67.584 27.136-136.704 40.96-204.288 40.96-14.336 0-25.6 11.264-25.6 25.6s11.264 25.6 25.6 25.6c74.24 0 149.504-14.848 223.744-45.056 13.312-5.12 19.456-19.968 14.336-33.28-4.096-9.728-13.824-15.872-24.064-15.872zM643.072 393.728c-10.24 0-19.968 6.144-23.552 15.872-5.12 13.312 1.024 28.16 14.336 33.28 73.728 29.696 148.992 45.056 223.744 45.056 14.336 0 25.6-11.264 25.6-25.6s-11.264-25.6-25.6-25.6c-68.096 0-136.704-13.824-204.288-40.96-3.584-1.536-7.168-2.048-10.24-2.048zM643.072 222.20799999999997c-10.24 0-19.968 6.144-23.552 15.872-5.12 13.312 1.024 28.16 14.336 33.28 73.728 29.696 148.992 45.056 223.744 45.056 14.336 0 25.6-11.264 25.6-25.6s-11.264-25.6-25.6-25.6c-68.096 0-136.704-13.824-204.288-40.96-3.584-1.536-7.168-2.048-10.24-2.048z"  horiz-adv-x="1024" />

    
    <glyph glyph-name="tiaoshi" unicode="&#60257;" d="M544 507.488V800a32 32 0 0 1-64 0v-292.512c-55.104-14.272-96-63.904-96-123.488s40.896-109.216 96-123.488v-291.616c0-18.176 14.336-32.896 32-32.896s32 14.72 32 32.928v291.616c55.104 14.272 96 63.904 96 123.488s-40.896 109.184-96 123.456zM223.136 187.744C223.328 189.184 224 190.496 224 192V800a32 32 0 0 1-64 0v-608c0-1.504 0.672-2.816 0.864-4.256A127.744 127.744 0 0 1 64 64a128 128 0 0 1 256 0 127.744 127.744 0 0 1-96.864 123.744zM192 0a64 64 0 1 0 0.032 128.032A64 64 0 0 0 192 0zM960 704a128 128 0 0 1-256 0 127.744 127.744 0 0 1 96.864-123.744c-0.192-1.44-0.864-2.752-0.864-4.256v-608a32 32 0 0 1 64 0V576c0 1.504-0.672 2.816-0.864 4.256A127.744 127.744 0 0 1 960 704z m-128-64a64 64 0 1 0 0.032 128.032A64 64 0 0 0 832 640z"  horiz-adv-x="1024" />

    
    <glyph glyph-name="xiazai" unicode="&#58915;" d="M967.111111-71.111111H56.888889v284.444444h113.777778v-170.666666h682.666666v170.666666h113.777778zM512 116.622222l-278.755556 284.444445 79.644445 79.644444L512 281.6l199.111111 199.111111 79.644445-79.644444zM568.888889 270.222222H455.111111V839.111111h113.777778z"  horiz-adv-x="1024" />

    
    <glyph glyph-name="xiazai2" unicode="&#58889;" d="M840.533333-128h-657.066666c-29.866667 0-55.466667 25.6-55.466667 59.733333v153.6c0 55.466667 81.066667 59.733333 85.333333 0v-128h597.333334v128c0 59.733333 85.333333 59.733333 85.333333 0v-153.6c0-34.133333-25.6-59.733333-55.466667-59.733333zM755.2 418.133333c-17.066667 17.066667-42.666667 17.066667-59.733333 0l-140.8-140.8v576c0 21.333333-21.333333 42.666667-42.666667 42.666667s-42.666667-21.333333-42.666667-42.666667v-576l-140.8 140.8c-17.066667 17.066667-42.666667 17.066667-59.733333 0-17.066667-17.066667-17.066667-42.666667 0-59.733333l213.333333-213.333333c17.066667-17.066667 42.666667-17.066667 59.733334 0l213.333333 213.333333c17.066667 12.8 17.066667 42.666667 0 59.733333z"  horiz-adv-x="1024" />

    
    <glyph glyph-name="shoucang-hover" unicode="&#58894;" d="M752.11 834c148.844 0 269.792-133.606 269.792-297.57 0-97.73-43.196-166.783-78.232-221.977C841.86 154.389 587.366-45.50999999999999 576.448-53.78899999999999a54.834 54.834 0 0 0-68.993 0c-10.92 8.279-265.953 207.578-367.163 368.242C105.196 369.64700000000005 62 438.7 62 536.4300000000001 62 700.394 182.948 834 331.792 834c82.672 0 159.824-41.996 210.159-110.989C592.826 792.004 669.438 834 752.11 834z"  horiz-adv-x="1092" />

    
    <glyph glyph-name="daoru" unicode="&#58933;" d="M819.5 789H199.3C140.7 789 93 741.3 93 682.7v-356c0-17.6 14.3-31.9 31.9-31.9s31.9 14.3 31.9 31.9v356c0 23.4 19.1 42.5 42.5 42.5h620.2c23.4 0 42.5-19.1 42.5-42.5v-584.5c0-23.4-19.1-42.5-42.5-42.5h-413c-17.6 0-31.9-14.3-31.9-31.9s14.3-31.9 31.9-31.9h413c58.6 0 106.3 47.7 106.3 106.3V682.7c0 58.6-47.7 106.3-106.3 106.3zM531.2 224.1v-61.4c-0.1-19.3 22.3-30 37.3-17.9l229.1 185.3c11.4 9.2 11.3 26.5-0.1 35.7l-228 205.1c-15 12-38.3 1.4-38.4-17.8V491c0-11.7-8-20.1-19.4-22.7C207.5 399 130.6 42.4 133.2 17.9c99 93.7 199 238.6 375.7 229.2 12.6-0.7 22.4-10.5 22.3-23z"  horiz-adv-x="1024" />

    
    <glyph glyph-name="fujian" unicode="&#58961;" d="M633.553 644.898c15.993 12.795 38.385 12.795 55.978-1.6 15.993-15.993 15.993-38.384 0-54.378L347.264 248.253c-22.39-20.792-22.39-57.577 0-81.568 20.792-22.391 57.578-22.391 81.568 0l401.444 403.042c55.978 55.979 55.978 148.742 0 204.72s-148.742 55.979-204.72 0l-47.982-47.98-12.795-12.796-369.455-369.455c-91.165-91.165-91.165-236.708 0-327.872 91.164-91.165 236.707-91.165 327.872 0L894.25 384.2c6.397 3.199 9.596 7.997 12.795 12.795 15.993 15.994 38.385 15.994 54.378 0s15.994-38.385 0-54.379l-3.198-3.199c-3.2-1.599-6.398-6.397-9.597-9.596L577.574-38.035c-119.953-119.953-316.676-119.953-436.63 0s-119.952 316.676 0 436.63l430.233 431.83c86.366 86.367 227.111 86.367 315.077 0 86.366-86.366 86.366-227.11 0-315.076L483.21 112.306c-52.78-52.78-139.145-52.78-190.325 0-52.78 52.78-52.78 139.146 0 190.326l340.667 342.266z m0 0"  horiz-adv-x="1024" />

    
    <glyph glyph-name="peixun" unicode="&#58916;" d="M680.5 352.1c-19.7 67.4-47.7 103.9-93.4 120.1l-13.6-29.9h25.9l-41.7-130.6H693c-4 13.3-8.5 26.8-12.5 40.4zM425.9 442.3l31.9 6-11.2 27.4c-50.8-13.5-79.2-48.7-101.3-123.6-4-13.6-8.4-27.2-12.2-40.4h144.4l-51.6 130.6zM622.4 623.9c0 71.7-48.7 119.3-108.7 119.3S405 695.6 405 623.9c0-1.6 0-3.1 0.1-4.7v-1c2.5-69.6 50.1-134.8 108.6-134.8 59.5 0 107.8 67.5 108.7 138.6v1.9zM496.9 468.9h33.2c8.3 0 15.1-5.6 15.1-12.6l-7.5-17.6c0-7-6.8-12.6-15.1-12.6h-18.1c-8.3 0-15.1 5.6-15.1 12.6l-7.5 17.6c-0.1 7 6.6 12.6 15 12.6zM532 412.6h-37l-11.7-100.9h64.9zM219 311.7h585.5v-95.5H219zM320.7 216.5h382V75h-382z"  horiz-adv-x="1024" />

    
    <glyph glyph-name="dian" unicode="&#60446;" d="M512 272a112 112 0 1 1 0 224 112 112 0 0 1 0-224z"  horiz-adv-x="1024" />

    
    <glyph glyph-name="pingkaichuang" unicode="&#58904;" d="M800 896h-576c-38.4 0-76.8-19.2-102.4-44.8l-38.4-38.4c-19.2-25.6-32-57.6-32-89.6v-672c0-32 12.8-64 32-89.6l38.4-38.4c25.6-25.6 64-44.8 102.4-44.8h582.4c38.4 0 76.8 19.2 102.4 44.8l38.4 38.4c19.2 25.6 32 57.6 32 89.6V723.2c0 32-12.8 64-32 89.6l-38.4 38.4c-32 25.6-70.4 44.8-108.8 44.8z m70.4-108.8c19.2-25.6 32-57.6 32-89.6v-672l-12.8-12.8-224 243.2c-6.4 6.4-6.4 6.4-6.4 12.8V806.4c0 12.8 6.4 19.2 19.2 19.2H768c44.8 6.4 76.8-12.8 102.4-38.4z m-716.8 0c25.6 25.6 57.6 44.8 96 44.8h76.8c12.8 0 19.2-6.4 19.2-19.2v-537.6c0-6.4 0-12.8-6.4-12.8L128 12.8l-6.4 12.8V697.6c0 32 6.4 64 32 89.6zM192-64l-19.2 19.2 243.2 268.8c6.4 6.4 6.4 6.4 6.4 12.8V806.4c0 12.8 6.4 25.6 19.2 25.6H576c12.8 0 19.2-6.4 19.2-19.2v-563.2c0-6.4 0-12.8 6.4-12.8l243.2-275.2-12.8-25.6H192zM268.8 352c12.8 0 25.6 6.4 25.6 19.2V454.4c0 12.8-6.4 19.2-19.2 19.2h-51.2l19.2-25.6c0-6.4 6.4-6.4 6.4-12.8v-64c0-6.4 6.4-19.2 19.2-19.2zM748.8 435.2v-64c0-12.8 6.4-19.2 19.2-19.2 12.8 0 19.2 6.4 19.2 19.2V454.4c0 12.8-6.4 19.2-19.2 19.2h-44.8l25.6-25.6v-12.8z"  horiz-adv-x="1024" />

    
    <glyph glyph-name="dianhua" unicode="&#58927;" d="M666.265 60.68333332999998H361.392a136.328 136.328 0 0 0-112.123 58.792 136.321 136.321 0 0 0-15.881 124.376l59.495 210.86c4.499 15.945 21.072 25.229 37.019 20.726 15.946-4.499 25.226-21.073 20.726-37.019l-59.824-212.026a29.557 29.557 0 0 0-0.806-2.448c-8.981-23.79-5.837-49.431 8.624-70.348 14.462-20.917 37.34-32.913 62.77-32.913h304.873c25.429 0 48.308 11.996 62.769 32.913 14.462 20.916 17.605 46.558 8.625 70.348a30.07 30.07 0 0 0-0.807 2.448l-59.824 212.026c-4.499 15.946 4.78 32.52 20.727 37.019 15.943 4.501 32.52-4.781 37.02-20.726l59.495-210.861a136.319 136.319 0 0 0-15.882-124.376 136.324 136.324 0 0 0-112.123-58.791zM811.764 429.49033333H659.861c-27.795 0-53.179 12.844-69.642 35.238-13.89 18.893-19.396 41.818-15.801 64.454H453.237c3.596-22.636-1.912-45.562-15.8-64.454-16.463-22.395-41.846-35.238-69.641-35.238H215.893c-27.795 0-53.178 12.844-69.642 35.238-16.463 22.395-21.15 50.454-12.858 76.983l14.57 46.612c10.527 33.68 31.201 64.938 58.213 88.015 29.383 25.103 64.804 38.927 99.736 38.927h415.832c34.933 0 70.354-13.825 99.737-38.927 27.012-23.077 47.686-54.335 58.213-88.016l14.568-46.611c8.292-26.529 3.605-54.588-12.858-76.982-16.463-22.395-41.845-35.239-69.64-35.239zM413.402 589.18333333h200.852a29.997 29.997 0 0 0 24.171-12.231 29.997 29.997 0 0 0 4.463-26.719l-8.259-26.421c-2.535-8.113-1.103-16.694 3.933-23.543s12.799-10.777 21.3-10.777h151.902c8.5 0 16.264 3.928 21.299 10.777 5.035 6.849 6.469 15.431 3.933 23.544l-14.568 46.611c-15.118 48.367-58.402 84.841-100.683 84.841H305.913c-42.28 0-85.564-36.474-100.682-84.841l-14.569-46.612c-2.536-8.113-1.103-16.695 3.933-23.544 5.035-6.849 12.798-10.777 21.299-10.777h151.902c8.5 0 16.264 3.928 21.299 10.777 5.035 6.849 6.468 15.431 3.933 23.544L384.77 550.23333333a30 30 0 0 0 28.632 38.95zM516.974 185.33333332999996c-13.002 0-26.216 2.172-39.154 6.75-29.635 10.488-53.412 31.889-66.952 60.259-13.539 28.371-15.22 60.316-4.732 89.951 21.018 59.39 84.692 91.634 144.951 73.409 15.859-4.796 24.827-21.541 20.031-37.4s-21.539-24.826-37.4-20.031c-29.521 8.932-60.717-6.882-71.019-35.995-5.141-14.526-4.317-30.185 2.319-44.092 6.637-13.907 18.292-24.397 32.819-29.538 29.985-10.614 63.017 5.15 73.63 35.139a57.622 57.622 0 0 1 3.314 17.958c0.374 16.564 14.108 29.739 30.67 29.314 16.564-0.374 29.689-14.105 29.314-30.67-0.281-12.464-2.548-24.784-6.736-36.619C610.958 215.52933333 565.45 185.33333332999996 516.974 185.33333332999996z"  horiz-adv-x="1024" />

    
    <glyph glyph-name="mendian" unicode="&#58920;" d="M153.87648 801.64352h729.728c33.01376 0 33.01376 51.2 0 51.2H153.87648c-33.01888 0-33.01888-51.2 0-51.2zM260.27008 502.4768c-3.58912-93.05088-173.54752-93.04576-177.14176 0-1.26976 32.90624-52.47488 33.02912-51.2 0 6.13888-159.08864 273.40288-159.08864 279.54176 0 1.27488 33.02912-49.93024 32.90624-51.2 0zM491.91424 502.4768c-3.58912-93.06112-173.52704-93.03552-177.11616 0-1.26976 32.90624-52.47488 33.02912-51.2 0 6.144-159.0784 273.39776-159.10912 279.53152 0 1.27488 33.02912-49.9456 32.90624-51.21536 0zM720.24064 502.4768c-3.58912-93.06624-173.52192-93.0304-177.11104 0-1.26976 32.90624-52.49024 33.02912-51.21536 0 6.13888-159.0784 273.38752-159.10912 279.5264 0 1.27488 33.02912-49.93024 32.90624-51.2 0zM954.67008 502.4768c-3.58912-93.06624-173.52192-93.0304-177.10592 0-1.26976 32.90624-52.47488 33.02912-51.2 0 6.13376-159.0784 273.37728-159.10912 279.50592 0 1.27488 33.02912-49.93024 32.90624-51.2 0zM151.6288 850.67776C98.29376 866.432 67.44576 768.9472 56.2688 736.74752 29.98272 661.03296 14.5664 570.53184 31.2832 490.66496c6.7584-32.31232 56.11008-18.60096 49.37216 13.60896-11.16672 53.36064-1.1776 125.19424 13.65504 181.85728 9.71264 37.11488 22.2976 76.48256 44.93824 107.97568 4.53632 6.31296 11.58144 8.8576 5.45792 6.42048 2.6112 1.03936-3.47648-0.17408-6.69184 0.77824 31.744-9.37472 45.20448 40.04352 13.61408 49.37216zM904.2176 802.304c-6.88128-3.05152-7.23968-3.59424-12.8-2.45248 2.88256-0.59392-5.14048 3.072 1.08032-0.6144 0.8704-0.512 2.56-2.2016 6.22592-6.30272 23.82336-26.6752 33.79712-70.50752 43.09504-103.7056 15.68768-56.00256 24.70912-129.01376 13.66016-181.86752-6.73792-32.21504 42.60864-45.92128 49.37216-13.60896 16.83456 80.46592 0.41984 169.54368-24.99072 246.05184-11.97568 36.06528-45.13792 131.6864-101.46816 106.70592-30.13632-13.35808-4.06016-57.46688 25.82528-44.20608zM876.49792 106.3424v-91.54048c0-13.96736 8.0896-59.6224-14.65344-59.6224H173.30688c-25.96864 0-15.28832 68.51584-15.28832 84.11648v308.87424c0 33.01376-51.2 33.01376-51.2 0v-367.95904c0-34.95936 13.85472-64.67584 50.35008-74.69568 11.69408-3.21024 26.41408-1.536 38.38464-1.536h607.42144c37.00736 0 87.6544-8.33024 112.1792 26.35776 17.79712 25.18016 12.544 60.08832 12.544 89.31328v86.68672c0 33.01888-51.2 33.01888-51.2 0.00512zM882.11968 406.69696v-168.448c0-33.01376 51.2-33.01376 51.2 0v168.448c0 33.01376-51.2 33.01376-51.2 0zM444.34432-69.9392v183.2192 77.55776c0 2.4576 69.61664 1.16224 75.83744 1.16224 5.0432 0 70.72256 0.56832 70.72256-0.52224V-69.9392c0-33.00864 51.2-33.00864 51.2 0v187.904 73.51296c0 44.60032-40.44288 51.72224-75.0592 51.72224H454.7328c-34.37568 0-61.58848-18.6624-61.58848-55.72608v-257.42336c0-32.9984 51.2-32.9984 51.2 0.01024z"  horiz-adv-x="1024" />

    
    <glyph glyph-name="baocun" unicode="&#58885;" d="M892.368542-127.953457H129.436025c-1.768633 0.605059-3.44418 1.396289-5.212813 1.768633-44.21583 7.912306-103.4185 59.016498-118.358797 101.324066-2.606407 7.260705-3.90961 14.986839-5.864415 22.619888V763.903112c0.605059 1.815176 1.489375 3.537266 1.861719 5.3059C10.891057 817.892968 69.535211 878.073041 116.915964 890.87236l12.566604 3.071837h679.24824c-50.406047 11.170315 171.790137-18.151762 215.214737-214.004619V-2.287413c-0.605059-1.72209-1.396289-3.44418-1.768633-5.3059-9.075881-48.730499-69.814469-104.582074-117.195222-117.381393-4.188868-1.117032-8.377736-2.047891-12.566605-3.025294z m-381.419715 131.111573l334.271677 0.046543c27.786159 0 42.447197 14.661038 42.447197 42.354111v262.874747c0 27.739616-14.800667 42.726455-42.121396 42.726455H176.165177c-26.948385 0-41.981767-14.986839-41.981768-41.888681a170123.432527 170123.432527 0 0 1 0-263.805607c0-4.37504 0.139629-8.889709 1.070489-13.078577 4.514669-19.082622 18.756821-29.089362 41.423251-29.089362 109.376001-0.232715 225.081848-0.139629 334.271678-0.139629z m-18.803364 480.277003h214.656221c29.927136 0 44.402002 14.428324 44.402002 44.448545V714.148668c0 30.206394-14.102523 44.355459-44.21583 44.355459H245.560759c-29.508249 0-43.936572-14.381781-43.936573-43.796944-0.093086-82.381073-0.093086-104.814789 0-187.195862 0-29.415163 14.567953-44.029658 43.796944-44.029659l246.67779-0.046543z m53.291711 209.210692h134.229953v-138.651535H545.483717v138.698078z"  horiz-adv-x="1024" />

    
    <glyph glyph-name="shuben" unicode="&#58893;" d="M950.2 703.9c-60.7 34.4-136.4 54.8-218.7 54.8-82.4 0-158.4-20.7-219-55.1 0 0-0.1 0-0.1-0.1-60.6 34.5-136.6 55.2-218.9 55.2-82.3 0-158-20.3-218.7-54.7-6.3-3.6-10.1-10.5-10.1-17.9v-650.2c0-11.8 9.4-20.3 19.8-20.3 2.9 0 5.9 0.7 8.7 2.1 57.3 28.4 126.1 44.9 200.3 44.9 73.5 0 141.9-16.5 198.9-44.4 3.6-1.7 7.1-3.5 10.5-5.3a20.39 20.39 0 0 1 19.2 0c0.1 0 0.1 0.1 0.2 0.1 0.5 0.2 0.9 0.5 1.4 0.8 3 1.5 5.9 3 8.9 4.5 57 27.8 125.4 44.4 198.9 44.4 74.2 0 143-16.5 200.3-44.9 2.9-1.4 5.8-2.1 8.7-2.1 10.4 0 19.8 8.5 19.8 20.3V686c0 7.4-3.8 14.3-10.1 17.9z m-218.7-602c-38.1 0-75.7-4.3-111.7-12.6-30.3-6.7-59.5-16.2-87.2-28.3v35c2.8 1.4 5.5 2.9 8.5 4.2 56.8 27.7 122.7 42.3 190.4 42.3 38 0 75.3-4.5 110.9-13.4 27.9-7 54.4-16.6 78.9-28.6V65c-25.7 10.6-52.7 18.9-80.7 24.9-35.1 7.9-71.8 12-109.1 12zM103.8 65v35.5c24.5 12 50.9 21.6 78.8 28.5 35.6 9 72.9 13.5 110.9 13.5 67.8 0 133.6-14.6 190.4-42.4 2.9-1.5 5.7-2.9 8.5-4.3V61c-29.6 13-61.1 22.9-93.8 29.7-34 7.3-69.3 11.1-105.1 11.1-33.6 0-66.7-3.3-98.6-9.7-31.7-6.1-62.3-15.2-91.1-27.1z m627.7 654.7c37 0 73.3-4.5 107.8-13.3 29.3-7.5 56.8-17.9 82-31.1V122c-55.1 25.4-120.1 40-189.8 40-73.4 0-141.8-16.5-198.9-44.4V670.1c27.6 15.6 58.2 27.7 91 36.2 34.6 8.9 70.9 13.4 107.9 13.4z m-545.7-13.3c34.4 8.9 70.7 13.3 107.7 13.3s73.3-4.5 108-13.4c32.7-8.4 63.3-20.5 90.9-36.1v-552.6C435.3 145.5 366.9 162 293.5 162c-69.6 0-134.6-14.6-189.7-40V675.3c25.2 13.2 52.7 23.7 82 31.1z"  horiz-adv-x="1024" />

    
    <glyph glyph-name="guanyuwomen" unicode="&#58880;" d="M536.66702222 352.11552237a226.13560889 226.13560889 0 0 1 106.82610726 192.43918222c0 124.40067792-100.04798578 225.45354903-223.06755318 225.45354904s-223.06876682-101.17787497-223.06876682-225.45354904a226.13924978 226.13924978 0 0 1 106.82610727-192.43918222c-132.18368475-48.20536889-226.83344592-176.37193955-226.83344593-326.38141629 0-14.811136 12.05134222-26.86369185 26.86369185-26.86369186s26.86247822 12.05255585 26.86247822 26.86369186c0 161.68459378 129.80011615 293.240832 289.47493926 293.240832s289.47493925-131.55745185 289.47493926-293.240832c0-14.811136 12.05134222-26.86369185 26.86369184-26.86369186 14.811136 0 26.86369185 12.05255585 26.86369186 26.86369186-0.25122133 150.00947675-94.90219615 278.17604741-227.08588089 326.38141629zM250.9579757 544.55470459c0 94.77476503 76.07151882 171.85116918 169.4676006 171.85116919S589.89074963 639.32946963 589.89074963 544.55470459 513.82044445 372.70110815 420.4255763 372.70110815 250.9579757 449.77872592 250.9579757 544.55470459zM749.82043497 352.11552237c53.22494103 37.91014875 86.61674667 100.29920711 86.61674666 169.59260445 0 114.48411022-92.14240237 207.62775703-205.49662341 207.62775703-14.811136 0-26.86247822-12.05134222-26.86247822-26.86369185s12.05134222-26.86369185 26.86247822-26.86369185c83.72830815 0 151.76802608-69.042176 151.76802608-154.02659082 0-71.42695822-47.70171259-132.93734875-116.11522845-149.63325155-13.6848877-3.38845392-22.21913125-16.57089897-20.086784-30.12714193 0-0.12500385 0-0.37622518 0.12500385-0.50244267 0-0.12500385 0-0.37622518 0.12621748-0.50122903 2.13356089-10.92266667 10.79523555-19.70934518 22.34413512-21.4666809 127.03789511-18.8294637 222.81754548-131.30501689 222.81754548-261.73136592 0-14.81356325 12.05134222-26.86369185 26.86369185-26.86369185s26.86369185 12.05134222 26.86369185 26.86369185c0 130.80257422-80.33985422 246.54279111-195.82642251 294.49572504z"  horiz-adv-x="1024" />

    
    <glyph glyph-name="qinglihuancun1" unicode="&#58887;" d="M786.6 180.1c-5.1 0-10.3 1.3-15.1 4.1L295.4 461.3c-14.3 8.3-19.2 26.7-10.8 41 8.3 14.3 26.7 19.2 41 10.8L801.7 236c14.3-8.3 19.2-26.7 10.8-41-5.6-9.5-15.6-14.9-25.9-14.9zM629.3-64c-14.7 0-29.3 4.2-42.1 11.6L186.1 181.3c-40 23.3-53.8 75.1-30.7 115.4l166.4 290.5c15 26.1 42.9 42.4 72.9 42.4 14.7 0 29.3-3.9 42.1-11.4l113.2-66 129 225.2c19.1 33.4 54.8 54.1 93.1 54.1 18.8 0 37.4-5 53.7-14.5 51.1-29.8 68.8-95.9 39.3-147.4L735.9 444l102-59.4c40-23.3 53.8-75 30.7-115.3L702.2-21.4c-14.9-26.1-42.9-42.6-72.9-42.6zM394.7 569.6c-8.6 0-16.5-4.7-20.8-12.2L207.5 266.9c-6.7-11.8-2.8-26.9 8.9-33.6l401.1-233.5c3.7-2.1 7.7-3.2 11.9-3.2 8.6 0 16.5 4.7 20.8 12.2l166.4 290.5c6.7 11.8 2.8 26.9-8.8 33.6L680 407.2c-14.2 8.3-19.1 26.5-10.9 40.8L813 699.4c13.2 23 5.4 52.5-17.4 65.7-7.2 4.2-15.3 6.4-23.5 6.4-16.9 0-32.6-9.2-41-23.9l-144-251.4c-4-6.9-10.5-12-18.3-14.1-7.7-2.1-15.9-1-22.9 3.1l-139.4 81.1c-3.6 2.2-7.6 3.3-11.8 3.3z"  horiz-adv-x="1024" />

    
    <glyph glyph-name="liulan" unicode="&#59230;" d="M512 203.602374c-99.479689 0-180.40172 80.931241-180.40172 180.401719s80.922031 180.40172 180.40172 180.40172 180.40172-80.931241 180.40172-180.40172-80.922031-180.40172-180.40172-180.401719z m0 274.897907c-52.097542 0-94.496188-42.390459-94.496188-94.496188s42.398646-94.496188 94.496188-94.496187 94.496188 42.390459 94.496188 94.496187-42.399669 94.496188-94.496188 94.496188zM512 23.192468c-268.673136 0-446.708971 251.853052-446.708971 353.932961v13.750165c0 102.07991 178.035836 353.932961 446.708971 353.932962 271.542486 0 445.837114-248.673639 446.708971-353.647459v-14.035668c-0.871857-105.259322-175.166485-353.932961-446.708971-353.932961z m0 652.890844c-236.006132 0-377.98475-226.164996-377.98475-285.208741v-13.750165c0-59.034535 141.979642-285.200554 377.98475-285.200554 238.874459 0 377.481284 224.361931 377.98475 285.485033v13.296841c-0.671289 61.284785-139.260717 285.377586-377.98475 285.377586z"  horiz-adv-x="1024" />

    


  </font>
</defs>
</svg>
